Первые шаги в 3ds Max [2009 г.]

Ответить на тему
 

Dead_Pool ®

Стаж: 4 года

Сообщений: 7

Симпатии: 3

Первые шаги в 3ds Max
Производитель: 3DoMen.com
Год выпуска: 2009
Язык: русский
Описание:В Релизе представлены 28-видеоуроков для начинающих изучать программу 3ds Max
Цель видеосамоучителя 3ds Max - сделать освоение 3ds Max максимально быстрым и результативным. Часто после изучения книги у читателя возникают вопросы, почему не получился тот или иной урок. Видеосамоучитель - это гарантия, что такие вопросы не возникнут, ведь авторы не только рассказывают, но и показывают, как нужно работать в 3ds Max.
Список уроков
Урок 01. Интерфейс программы
Урок 02. Справочная система
Урок 03. Построение отрезков
Урок 04. Построение прямых
Урок 05. Построение лучей
Урок 06. Построение многоугольников
Урок 07. Построение прямоугольников
Урок 08. Построение дуг
Урок 09. Построение окружностей и эллипсов
Урок 10. Построение сплайнов
Урок 11. Выделение и настройка свойств объектов
Урок 12. Копирование, вставка и удаление объектов
Урок 13. Перемещение объектов
Урок 14. Поворот и масштабирование объектов
Урок 15. Растяжение, удлинение и обрезка объектов
Урок 16. Разрыв и объединение объектов
Урок 17. Построение фасок и скруглений
Урок 18. Ввод, редактирование и форматирование текста
Урок 19. Форматирование абзацев текста
Урок 20. Форматирование текста с использованием стилей
Урок 21. Поиск и замена текста
Урок 22. Проверка правописания в тексте
Урок 23. Создание и форматирование таблиц
Урок 24. Создание типовых трехмерных тел
Урок 25. Создание сложных тел
Урок 26. Редактирование трехмерных тел
Урок 27. Создание источников света
Урок 28. Применение материалов и настройка их параметров

Формат: Avi
Видео кодек: XviD
Аудио кодек: AC-3
Видео: 1 616 Kbps, 15.000 fps, 1024x768
Аудио: 128 Kbps, 2 ch, 44.1 KHz

Скриншоты



Последний раз редактировалось: Dead_Pool (2014-08-19 16:46), всего редактировалось 11 раз(а)

Создавать темы 18-Авг-2014 19:32

[Профиль]  [ЛС] 

Slapper

Стаж: 3 года 11 месяцев

Сообщений: 2193

Симпатии: 213

уроки под спойлер спрячте

Создавать темы 18-Авг-2014 19:33

[Профиль]  [ЛС] 

Dead_Pool ®

Стаж: 4 года

Сообщений: 7

Симпатии: 3

Slapper, так пойдет?

Создавать темы 18-Авг-2014 19:44

[Профиль]  [ЛС] 

Slapper

Стаж: 3 года 11 месяцев

Сообщений: 2193

Симпатии: 213

Dead_Pool, да
Видео кодек: Другой MPEG4
Видео: ID : 0 Format : MPEG-4 Visual Format profile : Advanced [email protected] Format settings, BVOP : 2 Format settings, QPel : No Format settings, GMC : No warppoints Format settings, Matrix : Default (H.263) Muxing mode : Packed bitstream Codec ID : XVID Codec ID/Hint : XviD Duration : 4mn 17s Bit rate : 1 616 Kbps Width : 1 024 pixels Height : 768 pixels Display aspect ratio : 4:3 Frame rate : 15.000 fps Color space : YUV Chroma subsampling : 4:2:0 Bit depth : 8 bits Scan type : Progressive Compression mode : Lossy Bits/(Pixel*Frame) : 0.137 Stream size : 49.6 MiB (88%) Writing library : XviD 1.2.0SMP (UTC 2006-01-08)
Аудио: ID : 1 Format : AC-3 Format/Info : Audio Coding 3 Mode extension : CM (complete main) Format settings, Endianness : Big Codec ID : 2000 Duration : 4mn 16s Bit rate mode : Constant Bit rate : 128 Kbps Channel(s) : 2 channels Channel positions : Front: L R Sampling rate : 44.1 KHz Bit depth : 16 bits Compression mode : Lossy Stream size : 3.92 MiB (7%) Alignment : Aligned on interleaves Interleave, duration : 67 ms (1.00 video frame)
-это все уберите, оставьте:
Качество: (тут уж не знаю, т.к. не имею файлов)
Формат: AVI
Видео кодек: XviD
Аудио кодек: AC-3
Видео: 1 616 Kbps, 15.000 fps, 1024x768
Аудио: 128 Kbps, 2 ch, 44.1 KHz

Создавать темы 18-Авг-2014 20:23

[Профиль]  [ЛС] 

Dead_Pool ®

Стаж: 4 года

Сообщений: 7

Симпатии: 3

Slapper, Спасибо за помощь

Создавать темы 18-Авг-2014 23:39

[Профиль]  [ЛС] 

Топик был перенесен из форума Видеоуроки в форум Графика и Дизайн
nadezcda

Создавать темы 19-Авг-2014 00:36

 

Итачи

Стаж: 5 лет 8 месяцев

Сообщений: 98

Симпатии: 1

Люди, выкладываите свои работы по 3д максy, интереесно.

_________________
Подпись отключена за нарушение правил форума

Создавать темы 21-Авг-2014 00:33

[Профиль]  [ЛС] 
Показать сообщения:    
Ответить на тему

Текущее время: 18-Окт 23:40

Часовой пояс: UTC + 5



Вы не можете начинать темы
Вы не можете отвечать на сообщения
Вы не можете редактировать свои сообщения
Вы не можете удалять свои сообщения
Вы не можете голосовать в опросах
Вы не можете прикреплять файлы к сообщениям
Вы не можете скачивать файлы