Выход дракона / Enter the Dragon / 龍爭虎鬥 (Роберт Клауз) [1973 г., боевик, триллер, драма, криминал, BDRip-AVC]

Ответить на тему
 

abror_xon ®

Стаж: 5 лет 8 месяцев

Сообщений: 27

Симпатии: 4

Выход дракона / Enter the Dragon / 龍爭虎鬥
Год выпуска: 1973
Страна: Гонконг, США
Жанр: боевик, триллер, драма, криминал
Продолжительность: 01:42:33
Перевод: Профессиональный (полное дублирование)
Режиссер: Роберт Клауз
В ролях: Брюс Ли, Джон Сэксон, Кьень Ши, Джим Келли, Боло Йенг, Ана Капри, Анджела Мао, Роберт Уолл, Бетти Чюн, Джефри Уикс
Описание: События переносят нас на остров, превращенный в крепость главарем боевиков, открывшим там школу боевых искусств, которая является лишь ширмой, маскирующей контрабандный бизнес. В эту цитадель проникает герой Брюса Ли и становится участником жестокого турнира…
Доп. информация: Рейтинг фильма на IMDb: 7.70 (67 624)
Знаете ли вы, что...
Картина оказалась последним законченным фильмом с участием Брюса Ли — мастер восточных единоборств, американский и гонконгский киноактёр, философ, кинорежиссёр, продюсер и сценарист умер за шесть дней до премьеры.
Сюжет популярной игры «Mortal Kombat» основан на сюжете этого фильма.
Качество: BDRip-AVC
Формат: MKV
Видео кодек: Другой MPEG4
Аудио кодек: AC3
Видео: MPEG4 Video (H264) 1920x800 23.976fps [Video]
Аудио: Dolby AC3 48000Hz 6ch 384kbps [Audio] Subtitle: UTF-8 [Subtitle] RU/ENG

Скриншоты


Создавать темы 19-Авг-2014 07:31

[Профиль]  [ЛС] 

Топик был перенесен из форума HD-AVC в форум Зарубежное кино
Mixer City

Создавать темы 22-Авг-2014 14:33

 

Mixer City

Стаж: 6 лет 11 месяцев

Сообщений: 754

Симпатии: 63

abror_xon, битрейт видео допиши.

Создавать темы 22-Авг-2014 14:33

[Профиль]  [ЛС] 

abror_xon ®

Стаж: 5 лет 8 месяцев

Сообщений: 27

Симпатии: 4

Медиа инфо:
General
Unique ID : 213750750440779953798027765981035252361
(0xA0CEE5A7C009B663AA3F224BF2CA4A89)
Complete name : G:\Toorent\Enter the Dragon.1973.1080p.F_HD.mkv
Format : Matroska
Format version : Version 4 / Version 2
File size : 12.5 GiB
Duration : 1h 42mn
Overall bit rate : 17.4 Mbps
Encoded date : UTC 2013-06-24 05:39:41
Writing application : mkvmerge v6.2.0 ('Promised Land') built on Apr 28 2013 12:22:01
Writing library : libebml v1.3.0 + libmatroska v1.4.0
Video
ID : 1
Format : AVC
Format/Info : Advanced Video Codec
Format profile : [email protected]
Format settings, CABAC : Yes
Format settings, ReFrames : 5 frames
Codec ID : V_MPEG4/ISO/AVC
Duration : 1h 42mn
Width : 1 920 pixels
Height : 800 pixels
Display aspect ratio : 2.40:1
Frame rate mode : Constant
Frame rate : 23.976 fps
Color space : YUV
Chroma subsampling : 4:2:0
Bit depth : 8 bits
Scan type : Progressive
Writing library : x264 core 133 r2334kMod a3ac64b
Encoding settings : cabac=1 / ref=5 / deblock=1:-3:-3 / analyse=0x3:0x113 / me=umh /
subme=10 / psy=1 / fade_compensate=0.00 / psy_rd=0.90:0.00 /
mixed_ref=1 / me_range=48 / chroma_me=1 / trellis=2 / 8x8dct=1 /
cqm=0 / deadzone=21,11 / fast_pskip=1 / chroma_qp_offset=-2 /
threads=6 / lookahead_threads=1 / sliced_threads=0 / nr=0 /
decimate=1 / interlaced=0 / bluray_compat=0 / constrained_intra=0 /
bframes=9 / b_pyramid=2 / b_adapt=2 / b_bias=0 / direct=3 /
weightb=1 / open_gop=0 / weightp=2 / keyint=250 / keyint_min=23 /
scenecut=40 / intra_refresh=0 / rc_lookahead=40 / rc=crf / mbtree=0 /
crf=19.5000 / qcomp=0.75 / qpmin=0 / qpmax=69 / qpstep=4 /
vbv_maxrate=62500 / vbv_bufsize=78125 / crf_max=0.0 /
nal_hrd=none / ip_ratio=1.30 / pb_ratio=1.20 / aq=2:0.80
Language : English
Default : Yes
Forced : No
Color primaries : BT.709
Transfer characteristics : BT.709
Matrix coefficients : BT.709
Audio #1
ID : 2
Format : AC-3
Format/Info : Audio Coding 3
Mode extension : CM (complete main)
Format settings, Endianness : Big
Codec ID : A_AC3
Duration : 1h 42mn
Bit rate mode : Constant
Bit rate : 384 Kbps
Channel count : 6 channels
Channel positions : Front: L C R, Side: L R, LFE
Sampling rate : 48.0 KHz
Bit depth : 16 bits
Compression mode : Lossy
Stream size : 282 MiB (2%)
Title : Дубляж
Language : Russian
Default : Yes
Forced : No
Audio #2
ID : 3
Format : AC-3
Format/Info : Audio Coding 3
Mode extension : CM (complete main)
Format settings, Endianness : Big
Codec ID : A_AC3
Duration : 1h 42mn
Bit rate mode : Constant
Bit rate : 384 Kbps
Channel count : 6 channels
Channel positions : Front: L C R, Side: L R, LFE
Sampling rate : 48.0 KHz
Bit depth : 16 bits
Compression mode : Lossy
Stream size : 282 MiB (2%)
Title : MVO . Superbit
Language : Russian
Default : No
Forced : No
Audio #3
ID : 4
Format : AC-3
Format/Info : Audio Coding 3
Mode extension : CM (complete main)
Format settings, Endianness : Big
Codec ID : A_AC3
Duration : 1h 42mn
Bit rate mode : Constant
Bit rate : 384 Kbps
Channel count : 6 channels
Channel positions : Front: L C R, Side: L R, LFE
Sampling rate : 48.0 KHz
Bit depth : 16 bits
Compression mode : Lossy
Stream size : 282 MiB (2%)
Title : AVO . KOROLEV
Language : Russian
Default : No
Forced : No
Audio #4
ID : 5
Format : AC-3
Format/Info : Audio Coding 3
Mode extension : CM (complete main)
Format settings, Endianness : Big
Codec ID : A_AC3
Duration : 1h 42mn
Bit rate mode : Constant
Bit rate : 192 Kbps
Channel count : 2 channels
Channel positions : Front: L R
Sampling rate : 48.0 KHz
Bit depth : 16 bits
Compression mode : Lossy
Stream size : 141 MiB (1%)
Title : AVO.VOLODARSKIY
Language : Russian
Default : No
Forced : No
Audio #5
ID : 6
Format : AC-3
Format/Info : Audio Coding 3
Mode extension : CM (complete main)
Format settings, Endianness : Big
Codec ID : A_AC3
Duration : 1h 42mn
Bit rate mode : Constant
Bit rate : 192 Kbps
Channel count : 2 channels
Channel positions : Front: L R
Sampling rate : 48.0 KHz
Bit depth : 16 bits
Compression mode : Lossy
Stream size : 141 MiB (1%)
Title : AVO.MIHALEV
Language : Russian
Default : No
Forced : No
Audio #6
ID : 7
Format : AC-3
Format/Info : Audio Coding 3
Mode extension : CM (complete main)
Format settings, Endianness : Big
Codec ID : A_AC3
Duration : 1h 42mn
Bit rate mode : Constant
Bit rate : 192 Kbps
Channel count : 2 channels
Channel positions : Front: L R
Sampling rate : 48.0 KHz
Bit depth : 16 bits
Compression mode : Lossy
Stream size : 141 MiB (1%)
Title : AVO.TOLBIN
Language : Russian
Default : No
Forced : No
Audio #7
ID : 8
Format : AC-3
Format/Info : Audio Coding 3
Codec ID : A_AC3
Duration : 1h 42mn
Channel count : 6 channels
Sampling rate : 48.0 KHz
Compression mode : Lossy
Title : AVO.JIVOV
Language : Russian
Default : No
Forced : No
Audio #8
ID : 9
Format : AC-3
Format/Info : Audio Coding 3
Codec ID : A_AC3
Duration : 1h 42mn
Channel count : 6 channels
Sampling rate : 48.0 KHz
Compression mode : Lossy
Title : AVO.GORCHAKOV
Language : Russian
Default : No
Forced : No
Audio #9
ID : 10
Format : AC-3
Format/Info : Audio Coding 3
Codec ID : A_AC3
Duration : 1h 42mn
Channel count : 6 channels
Sampling rate : 48.0 KHz
Compression mode : Lossy
Language : English
Default : No
Forced : No
Text #1
ID : 11
Format : UTF-8
Codec ID : S_TEXT/UTF8
Codec ID/Info : UTF-8 Plain Text
Language : Russian
Default : No
Forced : No
Text #2
ID : 12
Format : UTF-8
Codec ID : S_TEXT/UTF8
Codec ID/Info : UTF-8 Plain Text
Language : English
Default : No
Forced : No
Menu
00:00:00.000 : en:The Winner
00:02:28.982 : en:A Martial Artist's Responsibility
00:05:28.411 : en:Emotional Content
00:08:26.172 : en:Honk Kong Arrivals
00:10:40.556 : en:Background on Han
00:14:39.211 : en:Su Lin's Tragedy
00:20:16.048 : en:Roper: A Betting Man
00:25:08.215 : en:Williams on the Run
00:27:40.909 : en:Odds on Insects
00:31:33.766 : en:Parsons Takes a Ride
00:34:03.750 : en:Han's Hospitalit
00:39:00.004 : en:Fattened for the Kill?
00:41:53.427 : en:After-Hours Menu
00:45:20.968 : en:Morning Ritual
00:46:35.375 : en:"Let the Tournament Begin"
00:50:48.045 : en:Midnight Exploration
00:55:11.433 : en:Caught in the Act
00:57:56.055 : en:Punishment
01:00:35.965 : en:Lee vs. Oharra
01:05:27.632 : en:Willams vs. Han
01:09:00.094 : en:Roper's Limit
01:11:25.072 : en:Clear Understanding
01:16:00.889 : en:Radio Room Raid
01:20:09.846 : en:Cavern Combat
01:25:08.895 : en:Roper vs. Bolo
01:28:51.576 : en:Fighting Frenzy
01:31:36.991 : en:Lee vs. Han
01:35:14.417 : en:Reflection of Death
01:40:23.976 : en:Thumbs Up

Создавать темы 22-Авг-2014 15:47

[Профиль]  [ЛС] 

Azamat_88

Стаж: 5 лет 11 месяцев

Сообщений: 2

очень прошу ,помогите докачать ,ПОЖАЛУЙСТА!!!

Создавать темы 28-Янв-2015 23:26

[Профиль]  [ЛС] 

Azamat_88

Стаж: 5 лет 11 месяцев

Сообщений: 2

докачать дайте уже ,ПЯТЫЙ месяц пошел!!!!

Создавать темы 04-Фев-2015 22:05

[Профиль]  [ЛС] 
Показать сообщения:    
Ответить на тему

Текущее время: 16-Дек 15:46

Часовой пояс: UTC + 5



Вы не можете начинать темы
Вы не можете отвечать на сообщения
Вы не можете редактировать свои сообщения
Вы не можете удалять свои сообщения
Вы не можете голосовать в опросах
Вы не можете прикреплять файлы к сообщениям
Вы не можете скачивать файлы