Виноваты звёзды / The Fault in Our Stars (Джош Бун) [2014 г., драма, мелодрама, WEB-DL]VO

Страницы :  1, 2  След.

Ответить на тему
 

baxa73 ®

Стаж: 3 года 8 месяцев

Сообщений: 198

Симпатии: 7


«One sick love story»- -Виноваты звёзды / The Fault in Our Stars-Год выпуска: 2014
Страна:США
Жанр:Драма, мелодрама
Продолжительность: 02:13:17
Перевод: Одноголосый закадровый [Алексей Матвеев]
Режиссер: Джош Бун
В ролях: Шейлин Вудли, Энсел Элгорт, Лора Дерн, Сэм Трэммелл, Нат Вулф, Уиллем Дефо, Лотте Вербеек, Ана Дела Крус, Рэнди Ковиц. Тони Саладна
Описание: "Жить сквозь боль"... "Чтобы увидеть радугу, нужно вытерпеть дождь"...
Сюжет романа построен вокруг одного из самых трагических явлений нашего времени - жизни подростков, больных раком. Хейзел - 16-летняя юная девушка - сумела пережить тяжелейший удар: в 13 лет она чуть не умерла от болезни щитовидной железы. Чудом ей удается выжить, но теперь она страдает от "колонии злокачественных клеток" в легких и не может дышать самостоятельно. На почве рака в терминальной стадии у Хейзел развилась депрессия. Она пытается понять коков мир будет без нее и что будут чувствовать ее близкие, когда ее не станет, читая одну и туже книгу из жанра трагедии. Хейзел считает себя бомбой, которая вот вот взорвется и чем дальше она будет от всех, тем меньший она нанесет урон. Видя, как их дочь мысленно убивает себя, родители принуждают Хейзел ходить на коллективную психотерапию, где она встречает неунывающего парня Августа, которому героиня сразу же сильно начинает нравиться. Ради нее Август старается быть сильным, не показывая своих слабостей и страхов... Но в итоге он показывает ей, что будет с ее родными когда Хейзел не станет.
- -Качество: WEB-DL
Формат: AVI
Видео: XviD, 1545 Кбит, 25 fps, 720x384
Аудио: Русский, английский (AC3, 6 ch, 384 Кбит/с)

Media Info

General
Complete name : K:\Video\Мелодрамы\V1novatu.zvezdu.2014.A1.WEB-DLRip.2200Mb.avi
Format : AVI
Format/Info : Audio Video Interleave
Format profile : OpenDML
File size : 2.17 GiB
Duration : 2h 13mn
Overall bit rate : 2 331 Kbps
Writing application : VirtualDubMod 1.5.10.2 (build 2540/release)
Writing library : VirtualDubMod build 2540/release
Video #0
ID : 0
Format : MPEG-4 Visual
Format profile : Advanced [email protected]
Format settings, BVOP : 2
Format settings, QPel : No
Format settings, GMC : No warppoints
Format settings, Matrix : Default (H.263)
Muxing mode : Packed bitstream
Codec ID : XVID
Codec ID/Hint : XviD
Duration : 2h 13mn
Bit rate : 1 546 Kbps
Width : 720 pixels
Height : 384 pixels
Display aspect ratio : 1.85:1
Frame rate : 23.976 fps
Color space : YUV
Chroma subsampling : 4:2:0
Bit depth : 8 bits
Scan type : Progressive
Compression mode : Lossy
Bits/(Pixel*Frame) : 0.233
Stream size : 1.44 GiB (66%)
Writing library : XviD 64
Audio #1
ID : 1
Format : AC-3
Format/Info : Audio Coding 3
Mode extension : CM (complete main)
Format settings, Endianness : Big
Codec ID : 2000
Duration : 2h 12mn
Bit rate mode : Constant
Bit rate : 384 Kbps
Channel(s) : 6 channels
Channel positions : Front: L C R, Side: L R, LFE
Sampling rate : 48.0 KHz
Bit depth : 16 bits
Compression mode : Lossy
Stream size : 365 MiB (16%)
Alignment : Split accross interleaves
Interleave, duration : 42 ms (1.00 video frame)
Interleave, preload duration : 500 ms
Audio #2
ID : 2
Format : AC-3
Format/Info : Audio Coding 3
Mode extension : CM (complete main)
Format settings, Endianness : Big
Codec ID : 2000
Duration : 2h 13mn
Bit rate mode : Constant
Bit rate : 384 Kbps
Channel(s) : 6 channels
Channel positions : Front: L C R, Side: L R, LFE
Sampling rate : 48.0 KHz
Bit depth : 16 bits
Compression mode : Lossy
Stream size : 366 MiB (16%)
Alignment : Aligned on interleaves
Interleave, duration : 42 ms (1.00 video frame)
Interleave, preload duration : 512 ms

Скриншоты

- - - -


Последний раз редактировалось: baxa73 (2014-08-22 14:36), всего редактировалось 3 раз(а)

Создавать темы 21-Авг-2014 11:40

[Профиль]  [ЛС] 

Sakar

Стаж: 3 года 10 месяцев

Сообщений: 26

рейтинг сцепляет... автору +5

Создавать темы 21-Авг-2014 15:18

[Профиль]  [ЛС] 

baxa73 ®

Стаж: 3 года 8 месяцев

Сообщений: 198

Симпатии: 7

Sakar,
Мерси! :)

Создавать темы 21-Авг-2014 15:23

[Профиль]  [ЛС] 

Nur7575

Стаж: 4 года 11 месяцев

Сообщений: 11

упс постриглась она, а в дивергенте красивые волосы были

Создавать темы 21-Авг-2014 18:05

[Профиль]  [ЛС] 

McFLY

Стаж: 5 лет 6 месяцев

Сообщений: 658

Симпатии: 22

Вот по скриншотам весь фильм и посмотрел :))) в конце чуть не расплакался pc

Создавать темы 22-Авг-2014 08:38

[Профиль]  [ЛС] 

baxa73 ®

Стаж: 3 года 8 месяцев

Сообщений: 198

Симпатии: 7

McFLY
Это вам не целый час просмотра, советую вам посмотреть и почувстовать.


Последний раз редактировалось: baxa73 (2014-08-24 01:40), всего редактировалось 1 раз

Создавать темы 22-Авг-2014 08:39

[Профиль]  [ЛС] 

Mixer City

Стаж: 6 лет 8 месяцев

Сообщений: 754

Симпатии: 63

baxa73, скрины не соответствуют тех. данным.

Создавать темы 22-Авг-2014 14:23

[Профиль]  [ЛС] 

akbar_wostok

Стаж: 4 года 10 месяцев

Сообщений: 2

классный фильм

Создавать темы 22-Авг-2014 19:33

[Профиль]  [ЛС] 

baxa73 ®

Стаж: 3 года 8 месяцев

Сообщений: 198

Симпатии: 7

akbar_wostok
Выйдет в хорошем качестве залью.

Создавать темы 23-Авг-2014 08:23

[Профиль]  [ЛС] 

The_HiDDeN

Стаж: 4 года 11 месяцев

Сообщений: 23

когда ожидать качество?)

Создавать темы 29-Авг-2014 18:30

[Профиль]  [ЛС] 

baxa73 ®

Стаж: 3 года 8 месяцев

Сообщений: 198

Симпатии: 7

The_HiDDeN
Скоро! Мой юный друг. :)

Создавать темы 29-Авг-2014 18:31

[Профиль]  [ЛС] 

Tony_storm

Стаж: 4 года 5 месяцев

Сообщений: 61

действительно задевает чувства, аж не расплакался

Создавать темы 31-Авг-2014 10:41

[Профиль]  [ЛС] 

The_HiDDeN

Стаж: 4 года 11 месяцев

Сообщений: 23

Такой фильм надо с лицензионной озвучкой смотреть ))

Создавать темы 03-Сен-2014 18:32

[Профиль]  [ЛС] 

VAIO

Стаж: 5 лет 8 месяцев

Сообщений: 1568

Симпатии: 1399

871445Такой фильм надо с лицензионной озвучкой смотреть ))
тогда стоит подождать :)

Создавать темы 04-Сен-2014 14:51

[Профиль]  [ЛС] 

Sitora

Стаж: 5 лет 8 месяцев

Сообщений: 15

Симпатии: 1

Очень трогательный фильм. Спасибо!

Создавать темы 09-Сен-2014 13:23

[Профиль]  [ЛС] 
Показать сообщения:    
Ответить на тему

Текущее время: 20-Сен 19:55

Часовой пояс: UTC + 5



Вы не можете начинать темы
Вы не можете отвечать на сообщения
Вы не можете редактировать свои сообщения
Вы не можете удалять свои сообщения
Вы не можете голосовать в опросах
Вы не можете прикреплять файлы к сообщениям
Вы не можете скачивать файлы