Наруто Ураганные хроники 373 / Naruto Shippuuden 373 (Датэ Хаято) [2014 г., Приключения, комедия, боевые искусства, сёнэн, HDTVRip]

Ответить на тему
 

sharof1 ®

Стаж: 4 года 5 месяцев

Сообщений: 26

Наруто Ураганные хроники 373 / Naruto Shippuuden 373
Год выпуска: 2014
Страна: Япония
Жанр: Приключения, комедия, боевые искусства, сёнэн
Продолжительность: 00:23:00
Перевод: Любительский (одноголосый)[RainDeath]
Режиссер: Датэ Хаято
В ролях: Оригинальная озвучка персонажей:
Накамура Тиэ / 中村千絵 — Сакура Харуно
Такэучи Дзюнко / 竹内順子 — Наруто Узумаки
Сугияма Нориаки / 杉山紀彰 — Саске Учиха
Исида Акира / 石田彰 — Гаара
Иноуэ Кадзухико / 井上和彦 — Какаши Хатаке
Кудзира / くじら — Орочимару
Канна Нобутоси / 神奈延年 — Кабуто Якуси
Кацуки Масако / 勝生真沙子 — Цунадэ
Масукава Ёити / 増川洋一 — Рок Ли
Мидзуки Нана / 水樹奈々 — Хината Хьюга
Морикубо Сётаро / 森久保祥太郎 — Шикамару Нара
Оцука Хотю / 大塚芳忠 — Джирайя
Сибата Хидэкацу / 柴田秀勝 — Третий Хокаге
Исикава Хидэо / 石川英郎 — Итачи Учиха
Тотика Койти / 遠近孝一 — Нейджи Хьюга
Описание: Второе пришествие популярного аниме-сериала «Наруто».
Это аниме покроет вторую часть сюжетной линии манги, после событий в конце памятной арки о попытки вернуть Саске в деревню Скрытого Листа.
История вращается в основном вокруг новых приключений Узумаки Наруто, Харуно Сакуры и их поиска Учиха Саске после того как тот покинул родную деревню чтобы обрести силу у Орочимару. Сюжет также покажет большую ативность, чем прежде Акатсуки в продвижении их плана по захвату всех «хвостатых» монстров.
Качество: HDTVRip
Формат: MKV
Видео кодек: XviD
Аудио кодек: MP3
Видео: MPEG4 Video (H264) 1280x720 23.976fps 8bit
Аудио: MP3 48000Hz stereo

MediaInfo

Video
ID : 1
Format : AVC
Format/Info : Advanced Video Codec
Format profile : [email protected]
Format settings, CABAC : Yes
Format settings, ReFrames : 4 frames
Codec ID : V_MPEG4/ISO/AVC
Duration : 23mn 0s
Bit rate : 1 694 Kbps
Width : 1 280 pixels
Height : 720 pixels
Display aspect ratio : 16:9
Frame rate mode : Constant
Frame rate : 23.976 fps
Color space : YUV
Chroma subsampling : 4:2:0
Bit depth : 8 bits
Scan type : Progressive
Bits/(Pixel*Frame) : 0.077
Stream size : 279 MiB (91%)
Forced : No
Audio
ID : 2
Format : MPEG Audio
Format version : Version 1
Format profile : Layer 3
Mode : Joint stereo
Mode extension : MS Stereo
Codec ID : A_MPEG/L3
Codec ID/Hint : MP3
Duration : 23mn 0s
Bit rate mode : Constant
Bit rate : 128 Kbps
Channel(s) : 2 channels
Sampling rate : 48.0 KHz
Compression mode : Lossy
Stream size : 21.1 MiB (7%)
Default : Yes
Forced : No

Скриншоты






Создавать темы 21-Авг-2014 22:03

[Профиль]  [ЛС] 

sLLx

Стаж: 6 лет 11 месяцев

Сообщений: 19

374 когда будет ?

Создавать темы 29-Авг-2014 01:33

[Профиль]  [ЛС] 

fake.rot

Стаж: 3 года 11 месяцев

Сообщений: 4

через неделю

Создавать темы 24-Окт-2014 08:14

[Профиль]  [ЛС] 
Показать сообщения:    
Ответить на тему

Текущее время: 24-Окт 09:14

Часовой пояс: UTC + 5



Вы не можете начинать темы
Вы не можете отвечать на сообщения
Вы не можете редактировать свои сообщения
Вы не можете удалять свои сообщения
Вы не можете голосовать в опросах
Вы не можете прикреплять файлы к сообщениям
Вы не можете скачивать файлы