Дело В Тебе / A Case Of You (Кэт Койро) [2013 г., Мелодрама, Комедия, HDRip]

Ответить на тему
 

baxa73 ®

Стаж: 3 года 8 месяцев

Сообщений: 198

Симпатии: 7

Дело В Тебе / A Case Of You- Год выпуска: 2013
Страна: США
Жанр: Мелодрама, Комедия
Продолжительность: 01:31:20
Перевод: Профессиональный (многоголосый, закадровый)-Режиссер: Кэт Койро-В ролях: Джастин Лонг, Эван Рэйчел Вуд, Кейр О’Доннелл, Бизи Филиппс, Сиенна Миллер, Питер Динклэйдж, Брендан Фрейзер, Сэм Рокуэлл, Винс Вон, Линн Коэн-Описание:Познакомившись в сети с прекрасной девушкой, начинающий писатель, желая произвести на свою собеседницу впечатление, решает слегка приукрасить свой профиль в социальной сети. Однако, когда спустя какое-то время они начинают встречаться, парню приходится несладко: признаться в обмане он не рискует, боясь потерять девушку, а соответствовать придуманному им самим идеальному образу оказывается очень сложно.- -Качество: HDRip
Формат: AVI
Видео: XVID, 720x304 (2,35:1), 23,976 кадра/сек, 1681 Кбит/сек

Аудио: AC-3, 48,0 КГц, 448 Кбит/сек (6 каналов)

Media Info

Формат : AVI
Формат/Информация : Audio Video Interleave
Размер файла : 1,37 Гбайт
Продолжительность : 1 ч. 31 м.
Общий поток : 2138 Кбит/сек
Программа кодирования : VirtualDubMod 1.5.10.2 (build 2540/release)
Библиотека кодирования : VirtualDubMod build 2540/release
Видео
Идентификатор : 0
Формат : MPEG-4 Visual
Профиль формата : Advanced [email protected]
Параметр BVOP формата : 2
Параметр QPel формата : Нет
Параметр GMC формата : Без точки перехода
Параметр матрицы формата : Выборочная
Идентификатор кодека : XVID
Идентификатор кодека/Подсказка : XviD
Продолжительность : 1 ч. 31 м.
Битрейт : 1681 Кбит/сек
Ширина : 720 пикселей
Высота : 304 пикселя
Соотношение сторон : 2,35:1
Частота кадров : 23,976 кадра/сек
Цветовое пространство : YUV
Субдискретизация насыщенности : 4:2:0
Битовая глубина : 8 бит
Тип развёртки : Прогрессивная
Метод сжатия : С потерями
Бит/(Пиксели*Кадры) : 0.320
Размер потока : 1,07 Гбайт (79%)
Библиотека кодирования : XviD 1.2.1 (UTC 2008-12-04)
Аудио
Идентификатор : 1
Формат : AC-3
Формат/Информация : Audio Coding 3
Расширение режима : CM (complete main)
Параметр Endianness формата : Big
Идентификатор кодека : 2000
Продолжительность : 1 ч. 31 м.
Вид битрейта : Постоянный
Битрейт : 448 Кбит/сек
Каналы : 6 каналов
Расположение каналов : Front: L C R, Side: L R, LFE
Частота : 48,0 КГц
Битовая глубина : 16 бит
Метод сжатия : С потерями
Размер потока : 293 Мбайт (21%)
Выравнивание : Разделение по промежуткам
Продолжительность промежутка : 42 мс. (1,00 видеокадр)
Время предзагрузки промежутка : 500 мс.
-

Скриншоты

- - - - - -
-

Создавать темы 23-Авг-2014 10:31

[Профиль]  [ЛС] 

sarvar-aka

Стаж: 4 года 11 месяцев

Сообщений: 34

Симпатии: 1

Очень скучный фильм. Не советую смотреть, пустая трата времени.

Создавать темы 23-Авг-2014 21:34

[Профиль]  [ЛС] 
Показать сообщения:    
Ответить на тему

Текущее время: 20-Сен 00:04

Часовой пояс: UTC + 5



Вы не можете начинать темы
Вы не можете отвечать на сообщения
Вы не можете редактировать свои сообщения
Вы не можете удалять свои сообщения
Вы не можете голосовать в опросах
Вы не можете прикреплять файлы к сообщениям
Вы не можете скачивать файлы