Враг / Enemy (Дени Вильнёв / Denis Villeneuve) [2013, Триллер, детектив, BDRip] [Лицензия]

Ответить на тему
 

Zab ®

Стаж: 6 лет 5 месяцев

Сообщений: 476

Симпатии: 424

-Враг / Enemy-
Год выпуска: 2013
Страна: Канада, Испания
Жанр: триллер, детектив
Продолжительность: 01:30:50
Перевод: Профессиональный (дублированный) [Лицензия]-Режиссер: Дени Вильнёв
В ролях: Джейк Джилленхол, Мелани Лоран, Сара Гадон, Изабелла Росселлини, Джошуа Пиис, Тим Пост, Кедар Браун, Дэррил Динн, Миша Хайстэд, Меган Манн-Описание: Взяв наугад кассету с фильмом в видеопрокате, парень с удивлением замечает в одном из эпизодов актёра, который является почти точной его копией, разве что на пару лет моложе. Вскоре желание найти своего двойника превращается для парня в настоящую навязчивую идею. Длительные бесплодные поиски, в конце концов, становятся причиной странных мистических событий, постепенно погружающих парня в пучину наваждения…- -Качество: BDRip
Формат: AVI
Видео кодек: XviD
Аудио кодек: AC3
Видео: Xvid 720x304 23.976fps 1871kbps
Аудио: AC3, 48000 Hz, 5.1, 448 kb/s
-

MI

General
Complete name : D:\[movies]\\Vrag.2013.D.WEB-DLRip_TAS-IX.NET.avi
Format : AVI
Format/Info : Audio Video Interleave
File size : 1.48 GiB
Duration : 1h 30mn
Overall bit rate : 2 328 Kbps
Writing application : VirtualDubModRus 1.5.10.2 (build 2542/release)
Writing library : VirtualDubMod build 2542/release
Video
ID : 0
Format : MPEG-4 Visual
Format profile : Advanced [email protected]
Format settings, BVOP : 1
Format settings, QPel : No
Format settings, GMC : No warppoints
Format settings, Matrix : Custom
Codec ID : XVID
Codec ID/Hint : XviD
Duration : 1h 30mn
Bit rate : 1 871 Kbps
Width : 720 pixels
Height : 304 pixels
Display aspect ratio : 2.35:1
Frame rate : 23.976 fps
Color space : YUV
Chroma subsampling : 4:2:0
Bit depth : 8 bits
Scan type : Progressive
Compression mode : Lossy
Bits/(Pixel*Frame) : 0.357
Stream size : 1.19 GiB (80%)
Writing library : XviD 73
Audio
ID : 1
Format : AC-3
Format/Info : Audio Coding 3
Mode extension : CM (complete main)
Format settings, Endianness : Big
Codec ID : 2000
Duration : 1h 30mn
Bit rate mode : Constant
Bit rate : 448 Kbps
Channel(s) : 6 channels
Channel positions : Front: L C R, Side: L R, LFE
Sampling rate : 48.0 KHz
Bit depth : 16 bits
Compression mode : Lossy
Stream size : 291 MiB (19%)
Alignment : Split accross interleaves
Interleave, duration : 42 ms (1.00 video frame)
Interleave, preload duration : 500 ms

Знаете ли вы, что...

Экранизация романа Жозе Сарамаго «Двойник» (O Homem Duplicado, 2002).
Весь актерский состав подписал соглашение о конфиденциальности, которое запрещало им говорить или объяснять прессе о смысле пауков в фильме.
По словам режиссера Дени Вильнёва, главную роль предлагали Хавьеру Бардему, но актер посчитал, что он не подходит для такой роли. Также главную роль предлагали Кристиану Бэйлу, но тот был вынужден отказаться из-за несогласованности рабочих графиков с другими его проектами.
На пятой минуте фильма, во время лекции, профессор Белл стоит перед доской, на которой написаны концепции и имена философов. Имя немецкого философа Фихте (Fichte) написано с ошибкой - «Fitche».
Когда Энтони звонит Адаму, они договариваются встретиться в воскресенье, в часе езды от города. В кадрах воздушных съемок, когда Адам едет к месту встречи, на фоне виден щит, на котором отображается актуальная дата (13-е июля 2012 года). В эту дату была пятница, а не воскресенье.
Актеры используют поисковик Google, чтобы найти информацию друг о друге. Можно заметить, что в поисковике используется система интеллектуального поиска, которой еще не было в то время, когда происходят события фильма.
В сцене в квартире показывают, как Хеллен надевает только темный топ, но в следующих кадрах можно заметить лямки бюстгальтера под ним.
-

Скриншоты





Последний раз редактировалось: Zab (2014-08-24 23:11), всего редактировалось 1 раз

Создавать темы 24-Авг-2014 14:50

[Профиль]  [ЛС] 

Android

Стаж: 3 года 11 месяцев

Сообщений: 73

Симпатии: 11

Это BDRip, а не WEB-DLRip.
Исправь!

_________________
Подпись отключена за нарушение правил форума

Создавать темы 24-Авг-2014 18:11

[Профиль]  [ЛС] 

Slapper

Стаж: 3 года 11 месяцев

Сообщений: 2193

Симпатии: 213

xxxxx,
да, тут господин Android прав.
это BDRip.
Опознать это можно легко. т.к. хэш суммы совпадают с этим релизом.
BDRemux.[1080p] + DVD5 R5 от CD Land - вот такое вот качество.

Создавать темы 24-Авг-2014 23:01

[Профиль]  [ЛС] 

Zab ®

Стаж: 6 лет 5 месяцев

Сообщений: 476

Симпатии: 424

Android, Slapper,Спасибо, исправил, кажись не заметил...

Создавать темы 24-Авг-2014 23:14

[Профиль]  [ЛС] 

Slapper

Стаж: 3 года 11 месяцев

Сообщений: 2193

Симпатии: 213

xxxxx, да, бывает :)

Создавать темы 24-Авг-2014 23:33

[Профиль]  [ЛС] 
Показать сообщения:    
Ответить на тему

Текущее время: 17-Окт 02:58

Часовой пояс: UTC + 5



Вы не можете начинать темы
Вы не можете отвечать на сообщения
Вы не можете редактировать свои сообщения
Вы не можете удалять свои сообщения
Вы не можете голосовать в опросах
Вы не можете прикреплять файлы к сообщениям
Вы не можете скачивать файлы