Годзилла / Godzilla (Гарет Эдвардс) [2014 г., Фантастика, боевик, триллер, BDRip 720p]

Тема закрыта
 

lotto ®

Стаж: 7 лет 9 месяцев

Сообщений: 221

Симпатии: 409

Годзилла / Godzilla

«The king will rise»
--Год выпуска: 2014
Страна: США, Япония
Жанр: Фантастика, боевик, триллер
Продолжительность: 02:03:07
Перевод: Профессиональный (полное дублирование) Line--Режиссер: Гарет Эдвардс--В ролях: Аарон Тейлор-Джонсон, Брайан Крэнстон, Элизабет Олсен, Жюльет Бинош, Дэвид Стрэтэйрн, Кен Ватанабе, Салли Хокинс, Эл Сапьенза, Брайан Маркинсон, Ричард Т. Джонс--Описание: Человечество случайно разбудило гигантское древнее существо, что повлекло за собой ужасающие последствия…-- --Качество: BDRip
Формат: MKV
Видео кодек: H.264
Аудио кодек: AC3
Видео: 1280x534, 23,976 fps, ~4890 Kbps
Аудио1: AC3, 48.0 KHz, 2 ch, 256 Kbps, CBR (Русский, Дубляж)
Аудио2: AC3, 48.0 KHz, 6 ch, 640 Kbps, CBR (Английский)

MediaInfo

Video
ID : 1
Format : AVC
Format/Info : Advanced Video Codec
Format profile : [email protected]
Format settings, CABAC : Yes
Format settings, ReFrames : 10 frames
Codec ID : V_MPEG4/ISO/AVC
Duration : 2h 3mn
Bit rate : 4 890 Kbps
Width : 1 280 pixels
Height : 534 pixels
Display aspect ratio : 2.40:1
Frame rate mode : Constant
Frame rate : 23.976 fps
Color space : YUV
Chroma subsampling : 4:2:0
Bit depth : 8 bits
Scan type : Progressive
Bits/(Pixel*Frame) : 0.298
Stream size : 4.11 GiB (83%)
Writing library : x264 core 142 r2431 ac76440
Encoding settings : cabac=1 / ref=10 / deblock=1:-3:-3 / analyse=0x3:0x113 / me=umh / subme=10 / psy=1 / psy_rd=1.00:0.05 / mixed_ref=1 / me_range=32 / chroma_me=1 / trellis=2 / 8x8dct=1 / cqm=0 / deadzone=21,11 / fast_pskip=0 / chroma_qp_offset=-2 / threads=18 / lookahead_threads=1 / sliced_threads=0 / nr=0 / decimate=1 / interlaced=0 / bluray_compat=0 / constrained_intra=0 / bframes=4 / b_pyramid=2 / b_adapt=2 / b_bias=0 / direct=3 / weightb=1 / open_gop=0 / weightp=2 / keyint=250 / keyint_min=23 / scenecut=40 / intra_refresh=0 / rc=2pass / mbtree=0 / bitrate=4890 / ratetol=1.0 / qcomp=0.70 / qpmin=0 / qpmax=69 / qpstep=4 / cplxblur=20.0 / qblur=0.5 / ip_ratio=1.40 / pb_ratio=1.30 / aq=2:1.00
Language : English
Default : Yes
Forced : No
Audio #1
ID : 2
Format : AC-3
Format/Info : Audio Coding 3
Mode extension : CM (complete main)
Format settings, Endianness : Big
Codec ID : A_AC3
Duration : 2h 3mn
Bit rate mode : Constant
Bit rate : 256 Kbps
Channel(s) : 2 channels
Channel positions : Front: L R
Sampling rate : 48.0 KHz
Bit depth : 16 bits
Compression mode : Lossy
Stream size : 225 MiB (4%)
Title : Line
Language : Russian
Default : Yes
Forced : No
Audio #2
ID : 3
Format : AC-3
Format/Info : Audio Coding 3
Mode extension : CM (complete main)
Format settings, Endianness : Big
Codec ID : A_AC3
Duration : 2h 3mn
Bit rate mode : Constant
Bit rate : 640 Kbps
Channel(s) : 6 channels
Channel positions : Front: L C R, Side: L R, LFE
Sampling rate : 48.0 KHz
Bit depth : 16 bits
Compression mode : Lossy
Stream size : 564 MiB (11%)
Language : English
Default : No
Forced : No
Text #1
ID : 4
Format : UTF-8
Codec ID : S_TEXT/UTF8
Codec ID/Info : UTF-8 Plain Text
Title : Full
Language : English
Default : No
Forced : No
Text #2
ID : 5
Format : UTF-8
Codec ID : S_TEXT/UTF8
Codec ID/Info : UTF-8 Plain Text
Title : SDH
Language : English
Default : No
Forced : No
Menu
00:00:00.000 : en:00:00:00.000
00:09:22.562 : en:00:09:22.562
00:19:03.225 : en:00:19:03.225
00:30:25.532 : en:00:30:25.532
00:39:10.098 : en:00:39:10.098
00:49:43.439 : en:00:49:43.439
00:59:27.189 : en:00:59:27.189
01:09:50.186 : en:01:09:50.186
01:19:11.246 : en:01:19:11.246
01:29:57.267 : en:01:29:57.267
01:40:14.759 : en:01:40:14.759
01:52:14.728 : en:01:52:14.728
01:56:10.088 : en:01:56:10.088

Скриншоты






Последний раз редактировалось: lotto (2014-08-25 21:17), всего редактировалось 2 раз(а)

Создавать темы 25-Авг-2014 15:10

[Профиль]  [ЛС] 

den11111

Стаж: 4 года 7 месяцев

Сообщений: 58

Симпатии: 2

чо так долго что тут не то что так долго провереяте

Создавать темы 25-Авг-2014 20:50

[Профиль]  [ЛС] 

Boburchik

Стаж: 3 года 11 месяцев

Сообщений: 19

Симпатии: 2

ну чо там

Создавать темы 25-Авг-2014 21:00

[Профиль]  [ЛС] 

4niko

Стаж: 6 лет 11 месяцев

Сообщений: 78

Симпатии: 11

Когда дадут скачать ?

Создавать темы 26-Авг-2014 02:49

[Профиль]  [ЛС] 

den11111

Стаж: 4 года 7 месяцев

Сообщений: 58

Симпатии: 2

там фаил походу не тот! размер файла посмотрите меньше 1 гига даже!

Создавать темы 26-Авг-2014 08:59

[Профиль]  [ЛС] 

lotto ®

Стаж: 7 лет 9 месяцев

Сообщений: 221

Симпатии: 409

869319там фаил походу не тот! размер файла посмотрите меньше 1 гига даже!
Файл тот. Не правильно отображается размер.
Люди я смотрю качают. Хотя статус премодерация.

Создавать темы 26-Авг-2014 09:33

[Профиль]  [ЛС] 

ОЛОЛОШ

Стаж: 5 лет 1 месяц

Сообщений: 141

Симпатии: 3

оо спс давно ждал

Создавать темы 26-Авг-2014 17:19

[Профиль]  [ЛС] 

Mercuriy

Стаж: 5 лет 11 месяцев

Сообщений: 418

Симпатии: 100

Более или менее уважаемый или приличный ХД на 720р да еще БДрип как минимум с 5-6-7 гигов начинается, автор извините но наверное или скорее всего контент шлак так называемый.....
Ждем полноценного рипа с блюра официального с достойными шестиканальными дорогами в стиле ХД мастер аудио или с тунца на худой конец)
Автору за труды большое спасибо!!!

Создавать темы 26-Авг-2014 22:26

[Профиль]  [ЛС] 

Иви

Стаж: 5 лет 9 месяцев

Сообщений: 688

Симпатии: 65

869512Более или менее уважаемый или приличный ХД на 720р да еще БДрип как минимум с 5-6-7 гигов начинается
чушь...
Больше не значит лучше, качество от повышения битрейта видео, а следовательно и бесмысленного раздутия размера не станет лучше.
- для качественного рипа в формате 720p хватит соотношения Бит/[Пиксели*Кадры] около 0.13/0.14 - 0.19/0.20, это где то 2000 - 3000 Кбит/сек, размер получается в районе 2-3 Гигов(это с одной звуковой дорожкой, лицензионный 6-ти канальный звук в формате AC-3 и битретом 384/448 Кбит/сек весит около 400-600 мб).
- для качественного рипа в формате 1080p нужно чуть большее соотношение Бит/[Пиксели*Кадры] около 0.20 - 0.25, это где то 3500 - 5000 Кбит/сек, размер получается в районе 4.5-6 Гигов(так же с одной звуковой дорожкой).
посмотрите рипы Nolimits-team, R.G. GoldenShara и Leonardo and Scarabey в формате 720p,1080p и поймете что больше не значит лучше...
P.S. Картинка у этого рипа отличная, а вот звук(Аудио1: AC3, 48.0 KHz, 2 ch, 256 Kbps, CBR (Русский, Дубляж)) не очень, так как лицензии пока еще нет, вторая звуковая дорожка(Аудио2: AC3, 48.0 KHz, 6 ch, 640 Kbps, CBR (Английский)) отличная

Создавать темы 27-Авг-2014 13:38

[Профиль]  [ЛС] 

alides

Стаж: 5 лет 1 месяц

Сообщений: 14

Симпатии: 1

869512... скорее всего контент шлак так называемый.....
Вроде на скриншотах качество приличное. Да и размер файла 5 гб

Создавать темы 30-Авг-2014 01:54

[Профиль]  [ЛС] 

lotto ®

Стаж: 7 лет 9 месяцев

Сообщений: 221

Симпатии: 409

alides, выше все сказано.

Создавать темы 30-Авг-2014 09:47

[Профиль]  [ЛС] 

FartMen

Стаж: 5 лет 7 месяцев

Сообщений: 30

Симпатии: 2

отстойный фильм уровня тв3

Создавать темы 13-Сен-2014 22:11

[Профиль]  [ЛС] 

Иви

Стаж: 5 лет 9 месяцев

Сообщений: 688

Симпатии: 65

Годзилла / Godzilla (Гарет Эдвардс / Gareth Edwards) [2014, США, Фантастика, боевик, приключения, BDRip 720p] Dub [Лицензия] + Original Eng + Sub rus, eng

Создавать темы 14-Сен-2014 14:01

[Профиль]  [ЛС] 
Показать сообщения:    
Тема закрыта

Текущее время: 22-Окт 11:36

Часовой пояс: UTC + 5



Вы не можете начинать темы
Вы не можете отвечать на сообщения
Вы не можете редактировать свои сообщения
Вы не можете удалять свои сообщения
Вы не можете голосовать в опросах
Вы не можете прикреплять файлы к сообщениям
Вы не можете скачивать файлы