Шоу Луни Тюнз / The Looney Tunes Show / Сезоны: 1-2/ Серии: 26/26 (Сет Кирсли / Seth Kearsley, Свинтон О. Скотт III / Swinton O. Scott III) [2011-2013, мультфильм, комедия, семейный, WEB-DL (480 + 1080p)] Dub (Пифагор)

Ответить на тему
 

Zab ®

Стаж: 6 лет 7 месяцев

Сообщений: 476

Симпатии: 424

Шоу Луни Тюнз -Страна: США
Жанр: мультфильм, комедия, семейный
Продолжительность: 00:22:41
Год выпуска: 2011
Перевод: Профессиональный (дублированный) DUB [Пифагор]
Русские субтитры: нет-Режиссёр: Спайк Брандт / Spike Brandt, Тони Сэрвонэ / Tony Cervone-Роли озвучивали: Александр Гаврилин, Прохор Чеховской, Диомид Виноградов, Антон Эльдаров, Нина Тобилевич, Дмитрий Филимонов, Ольга Шорохова, Александр Новиков, Татьяна Божок, Андрей Казанцев, Мария Овчинникова, Никита Прозоровский.-Описание: Мультсериал представляет собой совершенно новую интерпретацию «Безумных Мелодий (в народе Луни Тюнз)». В новом шоу сюжет в основном крутится вокруг двух главных персонажей — Багза и Даффи, которые покинули свои родные леса и переехали в город. Им еще только предстоит встретиться с такими же странными личностями, как Лола, Сильвестр, Порки Пиг и многими другими. Присоединяйтесь к новым историям о приключениях самых наисмешных героев во всей галактике!- -

Сезон: 1 / Серии: 1-26 из 26 [2011, мультфильм, комедия, семейный, WEB-DL 480p] Dub (Пифагор)

Шоу Луни Тюнз / The Looney Tunes Show- Страна: США
Жанр: мультфильм, комедия, семейный
Продолжительность: 00:22:41
Год выпуска: 2011
Перевод: Профессиональный (дублированный) Пифагор
Русские субтитры: нет-Режиссёр: Спайк Брандт / Spike Brandt, Тони Сэрвонэ / Tony Cervone
Роли озвучивали: Александр Гаврилин, Прохор Чеховской, Диомид Виноградов, Антон Эльдаров, Нина Тобилевич, Дмитрий Филимонов, Ольга Шорохова, Александр Новиков, Татьяна Божок, Андрей Казанцев, Мария Овчинникова, Никита Прозоровский.-Описание: Мультсериал представляет собой совершенно новую интерпретацию «Безумных Мелодий (в народе Луни Тюнз)». В новом шоу сюжет в основном крутится вокруг двух главных персонажей — Багза и Даффи, которые покинули свои родные леса и переехали в город. Им еще только предстоит встретиться с такими же странными личностями, как Лола, Сильвестр, Порки Пиг и многими другими. Присоединяйтесь к новым историям о приключениях самых наисмешных героев во всей галактике!- -Качество: WEB-DL 480p
Формат: mp4
Видео: [email protected] 854x480, 25fps, 803kbps, AVC
Аудио 1: Russian, AAC 44100Hz stereo 127kbps DUB [Пифагор]
Субтитры: отсутствуют

Список серий

1. Best Friends / Лучшие друзья
2. Members Only / Только члены Клуба
3. Jailbird and Jailbunny / Арестант и АрестБани
4. Fish and Visitors / Рыба и гости
5. Monster Talent / Монстро-талант
6. Reunion / Встреча выпускников
7. Casa de Calma / Каса Де Кальма
8. Devil Dog / Дьявольская собака
9. The Foghorn Leghorn Story / История Фогхорна Легхорна
10. Eligible Bachelors / Подходящие холостяки
11. Peel of Fortune
12. Double Date / Двойное свидание
13. To Bowl or Not to Bowl / Выбивать или не выбивать
14. Newspaper Thief / Газетный вор
15. Bugs & Daffy Get a Job / Багз И Даффи получают работу
16. That's My Baby / Это моя малышка
17. Sunday Night Slice / Воскресно-вечерний Ломтик
18. DMV / Департамент Автотранспортных Средств
19. Off Duty Cop / Коп не при исполнении
20. Working Duck / Работающий Дак
21. French Fries / Картофель фри
22. Beauty School / Школа красоты
23. The Float / Плавание
24. The Shelf / Полка
25. Muh-Muh-Muh-Murder / У-У-У-Убийца
26. Point, Laser Point / Указка, лазерная указка

Подробные технические данные

General
Complete name : D:\[movies]\Show Luni Tyunz_1_1_480p.MP4
Format : MPEG-4
Format profile : Base Media
Codec ID : isom
File size : 152 MiB
Duration : 22mn 38s
Overall bit rate mode : Variable
Overall bit rate : 937 Kbps
Encoded date : UTC 1970-01-01 00:00:00
Tagged date : UTC 1970-01-01 00:00:00
Writing application : Lavf52.40.0
Video
ID : 1
Format : AVC
Format/Info : Advanced Video Codec
Format profile : [email protected]
Format settings, CABAC : Yes
Format settings, ReFrames : 3 frames
Codec ID : avc1
Codec ID/Info : Advanced Video Coding
Duration : 22mn 38s
Bit rate : 800 Kbps
Width : 854 pixels
Height : 480 pixels
Display aspect ratio : 16:9
Frame rate mode : Constant
Frame rate : 25.000 fps
Color space : YUV
Chroma subsampling : 4:2:0
Bit depth : 8 bits
Scan type : Progressive
Bits/(Pixel*Frame) : 0.078
Stream size : 130 MiB (86%)
Writing library : x264 core 79
Encoding settings : cabac=1 / ref=3 / deblock=1:0:0 / analyse=0x3:0x113 / me=hex / subme=7 / psy=1 / psy_rd=1.0:0.0 / mixed_ref=1 / me_range=16 / chroma_me=1 / trellis=1 / 8x8dct=1 / cqm=0 / deadzone=21,11 / chroma_qp_offset=-2 / threads=24 / nr=0 / decimate=1 / mbaff=0 / constrained_intra=0 / bframes=3 / b_pyramid=0 / b_adapt=1 / b_bias=0 / direct=1 / wpredb=32 / wpredp=2 / keyint=250 / keyint_min=25 / scenecut=40 / rc_lookahead=40 / rc=abr / mbtree=1 / bitrate=800 / ratetol=5.0 / qcomp=0.60 / qpmin=10 / qpmax=51 / qpstep=4 / ip_ratio=1.41 / aq=1:1.00
Encoded date : UTC 1970-01-01 00:00:00
Tagged date : UTC 1970-01-01 00:00:00
Audio
ID : 2
Format : AAC
Format/Info : Advanced Audio Codec
Format profile : LC
Codec ID : 40
Duration : 22mn 37s
Bit rate mode : Variable
Bit rate : 128 Kbps
Channel(s) : 2 channels
Channel positions : Front: L R
Sampling rate : 44.1 KHz
Compression mode : Lossy
Stream size : 20.7 MiB (14%)
Encoded date : UTC 1970-01-01 00:00:00
Tagged date : UTC 1970-01-01 00:00:00

Скриншоты



Сезон: 2 / Серии: 1-26 из 26 [2012-2013, мультфильм, комедия, семейный, WEB-DL 480p] Dub (Пифагор)

Шоу Луни Тюнз / The Looney Tunes Show- Страна: США
Жанр: мультфильм, комедия, семейный
Продолжительность: 00:22:41
Год выпуска: 2012 - 2013
Перевод: Профессиональный (дублированный) Пифагор
Русские субтитры: нет-Режиссёр: Спайк Брандт / Spike Brandt, Тони Сэрвонэ / Tony Cervone
Роли озвучивали: Александр Гаврилин, Прохор Чеховской, Диомид Виноградов, Антон Эльдаров, Нина Тобилевич, Дмитрий Филимонов, Ольга Шорохова, Александр Новиков, Татьяна Божок, Андрей Казанцев, Мария Овчинникова, Никита Прозоровский.-Описание: Мультсериал представляет собой совершенно новую интерпретацию «Безумных Мелодий (в народе Луни Тюнз)». В новом шоу сюжет в основном крутится вокруг двух главных персонажей — Багза и Даффи, которые покинули свои родные леса и переехали в город. Им еще только предстоит встретиться с такими же странными личностями, как Лола, Сильвестр, Порки Пиг и многими другими. Присоединяйтесь к новым историям о приключениях самых наисмешных героев во всей галактике!- -Качество: WEB-DL 480p
Формат: mp4
Видео: [email protected] 854x480, 25fps, 803kbps, AVC
Аудио 1: Russian, AAC 44100Hz stereo 127kbps DUB [Пифагор]
Субтитры: отсутствуют

Список серий

01. Bobcats on Three!
02. You've Got Hate Mail
03. Itsy Bitsy Gopher
04. Rebel Without a Glove
05. Semper Lie
06. Father Figures
07. Customer Service
08. The Stud, the Nerd, the Average Joe and the Saint
09. It's a Handbag
10. A Christmas Carol
11. We're in Big Truffle
12. Dear John
13. Daffy Duck, Esquire
14. Spread Those Wings and Fly
15. The Black Widow
16. Mrs. Porkbunny's
17. Gribbler's Quest
18. The Grand Old Duck of York
19. Ridiculous Journey
20. The Shell Game
21. Year of the Duck
22. Gossamer is Awesomer
23. Here Comes the Pig
24. Mr. Weiner
25. Best Friends Redux
26. SuperRabbit

Подробные технические данные

General
Complete name : D:\[movies]\Show Luni Tyunz_2_2_480p.MP4
Format : MPEG-4
Format profile : Base Media
Codec ID : isom
File size : 143 MiB
Duration : 21mn 20s
Overall bit rate : 934 Kbps
Writing application : Lavf54.59.106
Video
ID : 1
Format : AVC
Format/Info : Advanced Video Codec
Format profile : [email protected]
Format settings, CABAC : Yes
Format settings, ReFrames : 4 frames
Codec ID : avc1
Codec ID/Info : Advanced Video Coding
Duration : 21mn 20s
Bit rate : 800 Kbps
Width : 854 pixels
Height : 480 pixels
Display aspect ratio : 16:9
Original display aspect ratio : 16:9
Frame rate mode : Constant
Frame rate : 25.000 fps
Color space : YUV
Chroma subsampling : 4:2:0
Bit depth : 8 bits
Scan type : Progressive
Bits/(Pixel*Frame) : 0.078
Stream size : 122 MiB (86%)
Writing library : x264 core 129
Encoding settings : cabac=1 / ref=3 / deblock=1:0:0 / analyse=0x3:0x113 / me=hex / subme=7 / psy=1 / psy_rd=1.00:0.00 / mixed_ref=1 / me_range=16 / chroma_me=1 / trellis=1 / 8x8dct=1 / cqm=0 / deadzone=21,11 / fast_pskip=1 / chroma_qp_offset=-2 / threads=24 / lookahead_threads=4 / sliced_threads=0 / nr=0 / decimate=1 / interlaced=0 / bluray_compat=0 / constrained_intra=0 / bframes=3 / b_pyramid=2 / b_adapt=1 / b_bias=0 / direct=1 / weightb=1 / open_gop=0 / weightp=2 / keyint=250 / keyint_min=25 / scenecut=40 / intra_refresh=0 / rc_lookahead=40 / rc=abr / mbtree=1 / bitrate=800 / ratetol=1.0 / qcomp=0.60 / qpmin=0 / qpmax=69 / qpstep=4 / ip_ratio=1.40 / aq=1:1.00
Language : English
Audio
ID : 2
Format : AAC
Format/Info : Advanced Audio Codec
Format profile : LC
Codec ID : 40
Duration : 21mn 20s
Duration_LastFrame : -5ms
Bit rate mode : Constant
Bit rate : 128 Kbps
Channel(s) : 2 channels
Channel positions : Front: L R
Sampling rate : 44.1 KHz
Compression mode : Lossy
Stream size : 19.5 MiB (14%)
Language : Russian

Скриншоты



Сезон: 2 / Серии: 1-3 из 26 [2012-2013, мультфильм, комедия, семейный, WEB-DL 1080p] Dub (Пифагор)

Страна: США
Жанр: мультфильм, комедия, семейный
Продолжительность: 00:22:41
Год выпуска: 2012-2013
Перевод: Профессиональный (дублированный) Пифагор
Русские субтитры: нет-Режиссёр: Спайк Брандт / Spike Brandt, Тони Сэрвонэ / Tony Cervone
Роли озвучивали: Александр Гаврилин, Прохор Чеховской, Диомид Виноградов, Антон Эльдаров, Нина Тобилевич, Дмитрий Филимонов, Ольга Шорохова, Александр Новиков, Татьяна Божок, Андрей Казанцев, Мария Овчинникова, Никита Прозоровский.-Описание: Мультсериал представляет собой совершенно новую интерпретацию «Безумных Мелодий (в народе Луни Тюнз)». В новом шоу сюжет в основном крутится вокруг двух главных персонажей — Багза и Даффи, которые покинули свои родные леса и переехали в город. Им еще только предстоит встретиться с такими же странными личностями, как Лола, Сильвестр, Порки Пиг и многими другими. Присоединяйтесь к новым историям о приключениях самых наисмешных героев во всей галактике!- -Качество: WEB-DL 1080p
Формат: MKV
Видео: [email protected] 1920x1080 23.976fps 2467kbps, AVC
Аудио 1: Russian, AAC 48000Hz stereo 160Kbps DUB [Пифагор]
Субтитры: отсутствуют

Список серий

01. Bobcats on Three!
02. You've Got Hate Mail
03. Itsy Bitsy Gopher
...

Подробные технические данные

General
Complete name : D:\[movies]\The.Looney.Tunes.Show.S02E01.Bobcats.On.Three.WEB-DL.1080p.mkv
Format : MPEG-4
Format profile : Base Media / Version 2
Codec ID : mp42
File size : 427 MiB
Duration : 22mn 41s
Overall bit rate mode : Variable
Overall bit rate : 2 633 Kbps
Encoded date : UTC 2013-09-27 04:30:07
Tagged date : UTC 2013-09-27 04:36:25
Writing application : HandBrake 0.9.9 2013051800
Video
ID : 1
Format : AVC
Format/Info : Advanced Video Codec
Format profile : [email protected]
Format settings, CABAC : Yes
Format settings, ReFrames : 4 frames
Codec ID : avc1
Codec ID/Info : Advanced Video Coding
Duration : 22mn 41s
Bit rate : 2 468 Kbps
Width : 1 920 pixels
Height : 1 080 pixels
Display aspect ratio : 16:9
Frame rate mode : Variable
Frame rate : 23.976 fps
Minimum frame rate : 23.810 fps
Maximum frame rate : 24.390 fps
Color space : YUV
Chroma subsampling : 4:2:0
Bit depth : 8 bits
Scan type : Progressive
Bits/(Pixel*Frame) : 0.050
Stream size : 400 MiB (94%)
Writing library : x264 core 130 r2273 b3065e6
Encoding settings : cabac=1 / ref=1 / deblock=1:0:0 / analyse=0x1:0x111 / me=hex / subme=2 / psy=1 / psy_rd=1.00:0.00 / mixed_ref=0 / me_range=16 / chroma_me=1 / trellis=0 / 8x8dct=0 / cqm=0 / deadzone=21,11 / fast_pskip=1 / chroma_qp_offset=0 / threads=18 / lookahead_threads=6 / sliced_threads=0 / nr=0 / decimate=1 / interlaced=0 / bluray_compat=0 / constrained_intra=0 / bframes=3 / b_pyramid=2 / b_adapt=1 / b_bias=0 / direct=1 / weightb=1 / open_gop=0 / weightp=1 / keyint=240 / keyint_min=24 / scenecut=40 / intra_refresh=0 / rc_lookahead=10 / rc=crf / mbtree=1 / crf=20.0 / qcomp=0.60 / qpmin=0 / qpmax=69 / qpstep=4 / vbv_maxrate=20000 / vbv_bufsize=25000 / crf_max=0.0 / nal_hrd=none / ip_ratio=1.40 / aq=1:1.00
Encoded date : UTC 2013-09-27 04:30:07
Tagged date : UTC 2013-09-27 04:36:25
Color primaries : BT.709
Transfer characteristics : BT.709
Matrix coefficients : BT.709
Audio
ID : 2
Format : AAC
Format/Info : Advanced Audio Codec
Format profile : LC
Codec ID : 40
Duration : 22mn 41s
Bit rate mode : Variable
Bit rate : 160 Kbps
Maximum bit rate : 338 Kbps
Channel(s) : 2 channels
Channel positions : Front: L R
Sampling rate : 48.0 KHz
Compression mode : Lossy
Stream size : 25.9 MiB (6%)
Language : Russian
Encoded date : UTC 2013-09-27 04:30:07
Tagged date : UTC 2013-09-27 04:36:23

Скриншоты



Создавать темы 27-Авг-2014 22:58

[Профиль]  [ЛС] 
Показать сообщения:    
Ответить на тему

Текущее время: 12-Дек 11:16

Часовой пояс: UTC + 5



Вы не можете начинать темы
Вы не можете отвечать на сообщения
Вы не можете редактировать свои сообщения
Вы не можете удалять свои сообщения
Вы не можете голосовать в опросах
Вы не можете прикреплять файлы к сообщениям
Вы не можете скачивать файлы