Я видел Дьявола / I Saw The Devil (Джи-Вун Ким) [2010 г., Драма, Триллер, BDRip]

Ответить на тему
 

Чингиз ®

Стаж: 5 лет 10 месяцев

Сообщений: 37

Симпатии: 20

Я видел Дьявола / I Saw The Devil
Год выпуска: 2010
Страна: Южная Корея
Жанр: Драма, Триллер
Продолжительность: 02:23:54
Перевод: Профессиональный (многоголосый, закадровый)
Режиссер: Джи-Вун Ким
В ролях: Ли Бёнхон, Чхве Минсик, Чон Гукхван, Чхон Ходжин, О Санха, Ким Юнсо
Описание: Чан Генчхоль – сумасшедший маньяк, который нападает на женщин, насилует и с особой жестокостью убивает их. На его счету множество ужасных кровавых преступлений, но полиция не может собрать достаточно улик, чтобы арестовать опасного преступника. Но однажды жестокий психопат убивает дочку бывшего шефа местной полиции. И тогда несчастный отец вместе с женихом дочери, агентом спецслужб, решает любым способом разыскать преступника. И если мужчины найдут убийцу, то шансов остаться в живых у него явно не будет! Внимание! Фильм содержит сцены насилия и ненормативную лексику!
Доп. информация: После того, как его невеста была жестоко убита, специальный агент Ким Су Хён (Ли Бён Хон) берет отпуск и принимается за поиски убийцы. Вскоре он нападает на след маньяка по имени Чан Гён Чхоль (Чхве Мин Сик). Однако в планы Ким Су Хёна не входит передача убийцы в руки полиции или его быстрое умерщвление. Напротив, месть должна быть долгой и мучительной для преступника. Поэтому, вживив тому жучок для слежения за всеми его перемещениями, Ким Су Хён устраивает регулярные нападения на Чан Гён Чхоля, стремясь довести его до изнеможения и отчаяния.
Кинопоиск: 7.62
IMDB: 7.8

Для информации

Корейский режиссер Ким Чжи-Ун получил международную известность благодаря триллеру «История двух сестер» (2003). Пожалуй, самая известная его работа – «азиатский вестерн» «Хороший, плохой, долбанутый», в котором, как и в фильме «Я видел дьявола», снялся актер Ли Бён-Хон.
Один из самых видных кинематографистов Кореи, чье имя стоит вровень с именами Ким Ки-Дука и Пак Чан-Ука, уже доказал, что способен с одинаковым успехом работать в самых разных жанрах. Однако его любимый жанр – хоррор с элементами черной комедии. Комические эпизоды есть и в фильме «Я видел дьявола», на редкость мрачном и кровавом. " Мне кажется, что комедия и хоррор – вполне совместимые вещи, — объясняет режиссер. – И то, и другое строится на эффекте неожиданности. Смешное случается неожиданно, страшное и шокирующее – тоже. Наша реальная жизнь тоже никогда не бывает полностью серьезной и грустной. В ней всегда есть место смеху."
Сценарий фильма «Я видел дьявола» нашел и предложил режиссеру актер Чой Мин-Сик, исполнивший одну из главных ролей.
В июле 2010 года фильму «Я видел дьявола», который изобиловал жестокими сценами насилия, был присвоен самый суровый рейтинг по шкале, принятой в Южной Корее, – «19+». После этого фильм смонтировали заново, но и второй версии, поданной на рассмотрение в начале августа, был присвоен тот же рейтинг. Вердикт комиссии по присвоению рейтингов мог существенно повлиять на прокатную судьбу хоррора, так как в настоящее время в Южной Корее не существует кинотеатров, демонстрирующих фильмы «19+». С третьей попытки создателям фильма удалось добиться рейтинга 18+.
Фильм «Я видел дьявола» получил несколько премий – в частности, приз Брюссельского кинофестиваля фантастических фильмов «Золотой ворон», приз фестиваля Fantsporto за лучшую режиссуру и Asian Film award за лучший монтаж. Актер Чой Мин-Сик, исполнивший роль маньяка, был награжден премией Director's Cut, которая вручается по результатам голосования режиссеров Южной Кореи.

Тех.данные

General
Unique ID : 252424758184199508524117760946681417388 (0xBDE73D73DCB40908BE5273BDD08C0EAC)
Complete name : D:\Kino\I.Saw.The.Devil.2010.x264.BDRip.720p.MVO.mkv
Format : Matroska
Format version : Version 2
File size : 2.19 GiB
Duration : 2h 23mn
Overall bit rate : 2 175 Kbps
Movie name : Rip by Blo
Encoded date : UTC 2011-10-07 19:59:50
Writing application : mkvmerge v5.0.0 ('Die Wahre Liebe') built on Sep 25 2011 20:33:49
Writing library : libebml v1.2.2 + libmatroska v1.3.0
Video
ID : 1
Format : AVC
Format/Info : Advanced Video Codec
Format profile : [email protected]
Format settings, CABAC : Yes
Format settings, ReFrames : 2 frames
Muxing mode : Header stripping
Codec ID : V_MPEG4/ISO/AVC
Duration : 2h 23mn
Bit rate : 1 726 Kbps
Width : 1 280 pixels
Height : 692 pixels
Display aspect ratio : 1.850
Frame rate mode : Variable
Frame rate : 24.000 fps
Color space : YUV
Chroma subsampling : 4:2:0
Bit depth : 8 bits
Scan type : Progressive
Bits/(Pixel*Frame) : 0.081
Stream size : 1.69 GiB (77%)
Title : I Saw The Devil
Writing library : x264 core 112 r1834 a51816a
Encoding settings : cabac=1 / ref=2 / deblock=1:0:0 / analyse=0x3:0x113 / me=hex / subme=6 / psy=1 / psy_rd=1.00:0.00 / mixed_ref=0 / me_range=16 / chroma_me=1 / trellis=0 / 8x8dct=1 / cqm=0 / deadzone=21,11 / fast_pskip=1 / chroma_qp_offset=-2 / threads=4 / sliced_threads=0 / nr=0 / decimate=1 / interlaced=0 / constrained_intra=0 / bframes=3 / b_pyramid=0 / b_adapt=1 / b_bias=0 / direct=3 / weightb=1 / open_gop=0 / weightp=2 / keyint=250 / keyint_min=25 / scenecut=40 / intra_refresh=0 / rc_lookahead=40 / rc=2pass / mbtree=1 / bitrate=1726 / ratetol=1.0 / qcomp=0.60 / qpmin=10 / qpmax=51 / qpstep=4 / cplxblur=20.0 / qblur=0.5 / ip_ratio=1.41 / aq=1:1.00
Language : English
Default : Yes
Forced : No
Audio
ID : 2
Format : AC-3
Format/Info : Audio Coding 3
Mode extension : CM (complete main)
Muxing mode : Header stripping
Codec ID : A_AC3
Duration : 2h 23mn
Bit rate mode : Constant
Bit rate : 448 Kbps
Channel(s) : 6 channels
Channel positions : Front: L C R, Side: L R, LFE
Sampling rate : 48.0 KHz
Bit depth : 16 bits
Compression mode : Lossy
Delay relative to video : 1s 100ms
Stream size : 461 MiB (21%)
Title : MVO R5
Language : Russian
Default : Yes
Forced : No
Качество: BDRip
Формат: MKV
Видео кодек: Другой MPEG4
Аудио кодек: AC3
Видео: MPEG4 Video (H264) 1280x692 24.00fps [English, I Saw The Devil (Video 1) [Default]]
Аудио: Dolby AC3 48000Hz 6ch [Russian, MVO R5 (Audio 1) [Default]]

Скриншоты

Создавать темы 28-Авг-2014 12:55

[Профиль]  [ЛС] 

bekstudio

Стаж: 6 лет 7 месяцев

Сообщений: 28

Ну когда раздача?

Создавать темы 28-Авг-2014 20:33

[Профиль]  [ЛС] 

Чингиз ®

Стаж: 5 лет 10 месяцев

Сообщений: 37

Симпатии: 20

870002Ну когда раздача?
Я сам не знаю, второй комп подключаю

Создавать темы 28-Авг-2014 22:14

[Профиль]  [ЛС] 

bekstudio

Стаж: 6 лет 7 месяцев

Сообщений: 28

Почемуто вообщем не качает уже, после 17% в чём может проблема? Хотя что показывает сидов достаточно...

Создавать темы 30-Авг-2014 15:34

[Профиль]  [ЛС] 

amishta

Стаж: 5 лет 6 месяцев

Сообщений: 41

мда... фильм сильный не советую для слабонервных. а так фильм зачетный и актеры не подвели. молодцы короче. спс за релиз

Создавать темы 31-Авг-2014 21:32

[Профиль]  [ЛС] 

Чингиз ®

Стаж: 5 лет 10 месяцев

Сообщений: 37

Симпатии: 20

870791мда... фильм сильный не советую для слабонервных. а так фильм зачетный и актеры не подвели. молодцы короче. спс за релиз
Спасибо Вам всем!

Создавать темы 02-Сен-2014 08:21

[Профиль]  [ЛС] 

Чингиз ®

Стаж: 5 лет 10 месяцев

Сообщений: 37

Симпатии: 20

870798прикоольный фильм.." типа "МОлчание ягнят"....!
Молчание ягнят отдыхает ab

Создавать темы 02-Сен-2014 08:22

[Профиль]  [ЛС] 

amishta

Стаж: 5 лет 6 месяцев

Сообщений: 41

еще есть типа такого жанра? корейцы зачетные фильмы стали делать

Создавать темы 02-Сен-2014 20:44

[Профиль]  [ЛС] 

Чингиз ®

Стаж: 5 лет 10 месяцев

Сообщений: 37

Симпатии: 20

871262еще есть типа такого жанра? корейцы зачетные фильмы стали делать
Как будет, сразу выложу

Создавать темы 09-Сен-2014 11:49

[Профиль]  [ЛС] 
Показать сообщения:    
Ответить на тему

Текущее время: 13-Дек 15:55

Часовой пояс: UTC + 5



Вы не можете начинать темы
Вы не можете отвечать на сообщения
Вы не можете редактировать свои сообщения
Вы не можете удалять свои сообщения
Вы не можете голосовать в опросах
Вы не можете прикреплять файлы к сообщениям
Вы не можете скачивать файлы