Преследование / Following (Кристофер Нолан / Christopher Nolan) [1998 г., триллер, драма, криминал, детектив, BDRip-AVC] AVO (Сербин) + Original + Sub (Rus, Eng)

Ответить на тему
 

Jeneva ®

Стаж: 5 лет 9 месяцев

Сообщений: 47

Симпатии: 70

Преследование / Following--«You're Never Alone»-- Год выпуска: 1998
Страна: Великобритания
Жанр: триллер, драма, криминал, детектив
Продолжительность: 01:10:10
Перевод: авторский (одноголосый закадровый, Сербин)
Cубтитры: русские, английские--Режиссер: Кристофер Нолан / Christopher Nolan--В ролях: Джереми Теобалд, Алекс Хоу, Люси Расселл, Джон Нолан, Дик Брэдселл, Джиллиан Эль, Дженнифер Энджел, Николас Карлотти, Даррен Орманди, Гай Гринуэй--Описание: Нуждающийся в средствах молодой писатель стал преследовать незнакомцев на улицах Лондона, якобы в поисках вдохновения для своего нового произведения. Поначалу он установил строгие правила относительно того, за кем он может следить и как долго, но вскоре, пристрастившись, отошёл от них.
Это случилось во время слежки за опрятным парнем в чёрном костюме. Он представился как «Кобб», а писатель - как «Билл». Кобб спросил парня, не работает ли тот в полиции, поняв, что он появился не случайно. Кобб оказался профессиональным вором. Он предложил молодому человеку поучаствовать в нескольких квартирных кражах. Материальная выгода, казалось, имела второстепенное значение для Кобба, который получал удовольствие от изучения личных вещей в квартире жертвы. Он объяснил, что настоящая страсть — в использовании потрясения от кражи, которое заставляет жертву переосознать свою жизнь.
Молодому человеку понравился стиль жизни Кобба, и он начал подражать ему, коротко подстригшись и сменив одежду на чёрный костюм. Он стал перестраивать себя, и Кобб поддерживал и наставлял его. Молодой человек также стал встречаться с блондинкой, которая была подругой местного гангстера. Кобб и блондинка продолжали всё глубже втягивать молодого человека в преступный мир, и скоро стало очевидно, что ими движет иной мотив.
--Рейтинг КиноПоиска: 7.810 (6696)
Рейтинг IMDB: 7.60 (51599)--Качество: BDRip-AVC
Формат: MKV
Видео кодек: H.264
Аудио кодек: AC3
Видео: 768x576 (4/3), 4382 kbps, 23.976 fps
Аудио №1: Russian, AC3, 6ch, 48 kHz, 448 kbps - Одноголосый, Сербин
Аудио №2: English, AC3, 6ch, 48 kHz, 448 kbps - Оригинал
Субтитры №1: Russian, SRT
Субтитры №2: English, SRT--

Награды


1999 — приз «Серебряный Хичкок» фестиваля британских фильмов в Динарде (Кристофер Нолан)
1999 — приз лучшему режиссёру кинофестиваля в Ньюпорте (Кристофер Нолан)
1999 — приз Tiger Award Роттердамского кинофестиваля (Кристофер Нолан)
1999 — приз Black & White Award кинофестиваля Слэмданс (Кристофер Нолан)

Интересные факты


«Преследование» (англ. Following) — первый полнометражный фильм Кристофера Нолана, снятый в 1998 году в стиле нео-нуар. Он рассказывает о молодом человеке, который следит за незнакомцами на улицах Лондона. Нарушив правило сохранять дистанцию, главный герой оказывается втянут в преступный мир. Фильм снят на черно-белую пленку. Бюджет фильма составил всего 6000 долларов. Подобно следующему фильму Нолана, "Преследование" отличается нелинейным развёртыванием сюжета.
Герой Алекса Хоу представляется Джереми Теобалду Коббом. Так же зовут героя Леонардо ДиКаприо, в фильме «Начало» (2010) режиссёром которого, также является Кристофер Нолан.
На 22 минуте 41 секунде, на двери квартиры можно заметить логотип Бэтмена. Интересно, что через семь лет, Кристофер Нолан снимет фильм «Бэтмен: Начало» (2005).
Композитором фильма является Дэвид Джулиан, написавший музыку для большинства лент Нолана.
Исполнители главных ролей Джереми Теобальд и Люси Рассел, позднее сыграли эпизодические роли в фильме «Бэтмен: Начало» — техника готэмского департамента воды и гостью в ресторане, соответственно.

MediaInfo

Format : Matroska
Format version : Version 4 / Version 2
File size : 2.59 GiB
Duration : 1h 10mn
Overall bit rate : 5 280 Kbps
Movie name : Following (1998) BDRip
Encoded date : UTC 2013-05-27 18:14:51
Writing application : mkvmerge v6.2.0 ('Promised Land') built on Apr 28 2013 12:22:01
Writing library : libebml v1.3.0 + libmatroska v1.4.0
Attachment : Yes
Video
ID : 1
Format : AVC
Format/Info : Advanced Video Codec
Format profile : [email protected]
Format settings, CABAC : Yes
Format settings, ReFrames : 15 frames
Codec ID : V_MPEG4/ISO/AVC
Duration : 1h 10mn
Bit rate : 4 279 Kbps
Width : 768 pixels
Height : 576 pixels
Display aspect ratio : 4:3
Frame rate mode : Constant
Frame rate : 23.976 fps
Color space : YUV
Chroma subsampling : 4:2:0
Bit depth : 8 bits
Scan type : Progressive
Bits/(Pixel*Frame) : 0.403
Stream size : 2.10 GiB (81%)
Writing library : x264 core 133 r2334kMod a3ac64b
Encoding settings : cabac=1 / ref=15 / deblock=1:-3:-1 / analyse=0x3:0x133 / me=umh / subme=11 / psy=1 / fade_compensate=0.00 / psy_rd=1.15:0.10 / mixed_ref=1 / me_range=32 / chroma_me=1 / trellis=2 / 8x8dct=1 / cqm=0 / deadzone=21,11 / fast_pskip=0 / chroma_qp_offset=-3 / threads=6 / lookahead_threads=1 / sliced_threads=0 / nr=0 / decimate=1 / interlaced=0 / bluray_compat=0 / constrained_intra=0 / bframes=16 / b_pyramid=2 / b_adapt=2 / b_bias=0 / direct=1 / weightb=1 / open_gop=0 / weightp=2 / keyint=250 / keyint_min=23 / scenecut=40 / intra_refresh=0 / rc_lookahead=40 / rc=crf / mbtree=0 / crf=22.5000 / qcomp=0.67 / qpmin=0 / qpmax=69 / qpstep=4 / vbv_maxrate=50000 / vbv_bufsize=62500 / crf_max=0.0 / nal_hrd=none / ip_ratio=1.40 / pb_ratio=1.20 / aq=3:1.00
Language : English
Default : Yes
Forced : No
Matrix coefficients : BT.709
Audio #1
ID : 2
Format : AC-3
Format/Info : Audio Coding 3
Mode extension : CM (complete main)
Format settings, Endianness : Big
Codec ID : A_AC3
Duration : 1h 10mn
Bit rate mode : Constant
Bit rate : 448 Kbps
Channel(s) : 6 channels
Channel positions : Front: L C R, Side: L R, LFE
Sampling rate : 48.0 KHz
Bit depth : 16 bits
Compression mode : Lossy
Stream size : 225 MiB (8%)
Title : AVO (Serbin)
Language : Russian
Default : Yes
Forced : No
Audio #2
ID : 3
Format : AC-3
Format/Info : Audio Coding 3
Mode extension : CM (complete main)
Format settings, Endianness : Big
Codec ID : A_AC3
Duration : 1h 10mn
Bit rate mode : Constant
Bit rate : 448 Kbps
Channel(s) : 6 channels
Channel positions : Front: L C R, Side: L R, LFE
Sampling rate : 48.0 KHz
Bit depth : 16 bits
Compression mode : Lossy
Stream size : 225 MiB (8%)
Title : Original
Language : English
Default : No
Forced : No
Text #1
ID : 4
Format : UTF-8
Codec ID : S_TEXT/UTF8
Codec ID/Info : UTF-8 Plain Text
Language : Russian
Default : No
Forced : No
Text #2
ID : 5
Format : UTF-8
Codec ID : S_TEXT/UTF8
Codec ID/Info : UTF-8 Plain Text
Language : English
Default : No
Forced : No
Menu
00:00:00.000 : en:"The Following is My Explanation"
00:17:03.231 : en:"Can I Buy You a Drink?"
00:21:38.714 : en:Getting Protection
00:22:43.195 : en:"He's a Sad Fucker with No Social Life"
00:25:17.516 : en:"They Rifled Through My Underwear"
00:28:49.728 : en:The Club
00:29:46.785 : en:A Model's Apartment
00:35:07.731 : en:"He Made a Mess on My Carpet"
00:38:04.282 : en:The Safe
00:41:02.502 : en:"I've Thought It All Through"
00:49:04.942 : en:The Money
00:51:01.976 : en:"He's Our Man"
00:59:27.522 : en:"That's It, Unless You've Got Any Questions"

x264 log

x264 [info]: frame I:609 Avg QP:20.33 size: 55563
x264 [info]: frame P:15174 Avg QP:22.32 size: 31749
x264 [info]: frame B:85161 Avg QP:23.92 size: 21024
x264 [info]: consecutive B-frames: 0.9% 0.5% 1.9% 5.9% 7.6% 42.8% 5.0% 2.7% 3.5% 3.2% 4.8% 8.7% 2.3% 2.0% 2.2% 2.6% 3.4%
x264 [info]: mb I I16..4: 8.5% 77.3% 14.2%
x264 [info]: mb P I16..4: 0.2% 24.2% 0.8% P16..4: 26.8% 33.2% 10.0% 1.0% 0.0% skip: 3.8%
x264 [info]: mb B I16..4: 0.0% 13.4% 0.1% B16..8: 40.4% 15.1% 3.7% direct: 5.9% skip:21.5% L0:46.0% L1:50.5% BI: 3.6%
x264 [info]: 8x8 transform intra:97.8% inter:60.6%
x264 [info]: coded y,uvDC,uvAC intra: 99.3% 0.0% 0.0% inter: 34.7% 0.0% 0.0%
x264 [info]: i16 v,h,dc,p: 24% 12% 27% 37%
x264 [info]: i8 v,h,dc,ddl,ddr,vr,hd,vl,hu: 7% 6% 21% 10% 12% 11% 11% 10% 12%
x264 [info]: i4 v,h,dc,ddl,ddr,vr,hd,vl,hu: 6% 4% 7% 12% 16% 15% 14% 13% 14%
x264 [info]: i8c dc,h,v,p: 92% 8% 0% 0%
x264 [info]: Weighted P-Frames: Y:11.9% UV:0.0%
x264 [info]: ref P L0: 41.9% 7.9% 16.9% 7.3% 5.8% 4.4% 3.8% 2.0% 1.8% 1.6% 1.5% 1.3% 1.3% 1.2% 1.2% 0.1%
x264 [info]: ref B L0: 61.6% 14.4% 8.1% 4.0% 2.9% 2.3% 1.9% 1.1% 0.9% 0.8% 0.7% 0.6% 0.4% 0.1%
x264 [info]: ref B L1: 87.8% 12.2%
x264 [info]: kb/s:4381.76
x264 [info]: encoded 100944 frames, 7.09 fps, 4381.76 kb/s, duration 3:57:14.34

Скриншоты





Создавать темы 28-Авг-2014 16:15

[Профиль]  [ЛС] 

DrHouse

Стаж: 7 лет

Сообщений: 15

очень интересное кино.
Незамысловатый сюжет дополненный добротной работой молодого режиссера.

Создавать темы 28-Авг-2014 21:00

[Профиль]  [ЛС] 
Показать сообщения:    
Ответить на тему

Текущее время: 15-Дек 19:08

Часовой пояс: UTC + 5



Вы не можете начинать темы
Вы не можете отвечать на сообщения
Вы не можете редактировать свои сообщения
Вы не можете удалять свои сообщения
Вы не можете голосовать в опросах
Вы не можете прикреплять файлы к сообщениям
Вы не можете скачивать файлы