Злоумышленники / Intruders / Сезон: 1 / Серии: 1-8 из 8 (Даниэль Штамм, Эдуардо Санчес) [2014, триллер, детектив, фантастика, WEB-DLRip] MVO (IdeaFilm)

Ответить на тему
 

emilsky ®

Стаж: 7 лет 2 месяца

Сообщений: 2237

Симпатии: 610

Злоумышленники / Intruders Год выпуска: 2014
Страна: США
Жанр: триллер, детектив, фантастика
Продолжительность: ~00:45:00-Перевод: Профессиональный (многоголосый закадровый) IdeaFilm
Русские субтитры: нет-Режиссёр: Даниэль Штамм, Эдуардо Санчес
В ролях: Джон Симм, Мира Сорвино, Соня Саломяа, Дэрил Шаттлворф, Тоби Харгрейв, Карин Коновал, Шамир Андерсон-Описание: Сюжет сериала вращается вокруг тайного общества, члены которого обнаружили способ поселяться в телах других людей, таким образом, обретая бессмертие. Джек Уэйлен - человек, прошлое которого покрыто мраком и тайнами. Когда-то он работал в полиции, сейчас же он живет вместе со своей женой Эми. Джек хочет забыть все, что с ним произошло и игнорирует ошибки своего прошлого. Вскоре Эми исчезает и ему приходится начать расследование, и становится понятно, что к этому каким-то образом причастно тайное общество.-Качество: WEB-DLRip
Формат: AVI
Видео кодек: XviD
Аудио кодек: MP3
Видео: XviD, 720x400, 23.976 fps, ~1 407 Kbps 0.204 bit/pixel
Аудио: МР3, 2 ch, 128 Кбит/с

Список серий

1. Pilot

MediaInfo

Format : AVI
Format/Info : Audio Video Interleave
File size : 506 MiB
Duration : 45mn 46s
Overall bit rate : 1 544 Kbps
Writing application : VirtualDubMod 1.5.10.3 | www.virtualdub-fr.org || (build 2550/release)
Writing library : VirtualDubMod build 2550/release
Video
ID : 0
Format : MPEG-4 Visual
Format profile : Advanced [email protected]
Format settings, BVOP : 1
Format settings, QPel : No
Format settings, GMC : No warppoints
Format settings, Matrix : Default (H.263)
Codec ID : XVID
Codec ID/Hint : XviD
Duration : 45mn 46s
Bit rate : 1 407 Kbps
Width : 720 pixels
Height : 400 pixels
Display aspect ratio : 16:9
Frame rate : 23.976 fps
Color space : YUV
Chroma subsampling : 4:2:0
Bit depth : 8 bits
Scan type : Progressive
Compression mode : Lossy
Bits/(Pixel*Frame) : 0.204
Stream size : 461 MiB (91%)
Writing library : XviD 1.2.1 (UTC 2008-12-04)
Audio
ID : 1
Format : MPEG Audio
Format version : Version 1
Format profile : Layer 3
Codec ID : 55
Codec ID/Hint : MP3
Duration : 45mn 46s
Bit rate mode : Constant
Bit rate : 128 Kbps
Channel(s) : 2 channels
Sampling rate : 48.0 KHz
Compression mode : Lossy
Stream size : 41.9 MiB (8%)
Alignment : Aligned on interleaves
Interleave, duration : 42 ms (1.00 video frame)
Interleave, preload duration : 504 ms
Writing library : LAME3.99r
Encoding settings : -m s -V 4 -q 2 -lowpass 17 -b 128

Скриншоты



Последний раз редактировалось: emilsky (2014-10-28 18:00), всего редактировалось 5 раз(а)

Создавать темы 29-Авг-2014 03:34

[Профиль]  [ЛС] 

PupuseG

Стаж: 4 года 11 месяцев

Сообщений: 514

Симпатии: 64

Сам посмотрел уже? Стоит начинать смотреть, или нуего?=)

Создавать темы 29-Авг-2014 06:30

[Профиль]  [ЛС] 

emilsky ®

Стаж: 7 лет 2 месяца

Сообщений: 2237

Симпатии: 610

870091Сам посмотрел уже? Стоит начинать смотреть, или нуего?=)
нет, только вечером планировал посмотреть

Создавать темы 29-Авг-2014 10:15

[Профиль]  [ЛС] 

PupuseG

Стаж: 4 года 11 месяцев

Сообщений: 514

Симпатии: 64

Отпишись потом, если не затруднит. Да и есть ли будущее у него. А то как "под несчастливой звездой" получится.=)

Комментарий от emilsky


пилот не понял, сегодня вторую посмотрю там будет ясно

Создавать темы 29-Авг-2014 15:12

[Профиль]  [ЛС] 

emilsky ®

Стаж: 7 лет 2 месяца

Сообщений: 2237

Симпатии: 610

2, 3 и 4 серии!

Создавать темы 26-Сен-2014 19:20

[Профиль]  [ЛС] 

McFLY

Стаж: 5 лет 6 месяцев

Сообщений: 658

Симпатии: 22

Интересный сериал ... советую добраться и до книги Майкл Маршал - "Те, кто приходят из темноты". Это вообще шедевр.

Создавать темы 26-Сен-2014 20:36

[Профиль]  [ЛС] 

emilsky ®

Стаж: 7 лет 2 месяца

Сообщений: 2237

Симпатии: 610

5, 6 и 7 серии!

Создавать темы 15-Окт-2014 10:10

[Профиль]  [ЛС] 

clacson

Стаж: 6 лет 5 месяцев

Сообщений: 20

tp tp Cпасибо, жду продолжения, сериал классный

Создавать темы 19-Окт-2014 19:19

[Профиль]  [ЛС] 

emilsky ®

Стаж: 7 лет 2 месяца

Сообщений: 2237

Симпатии: 610

8 серия, финал!

Создавать темы 28-Окт-2014 18:01

[Профиль]  [ЛС] 
Показать сообщения:    
Ответить на тему

Текущее время: 21-Сен 04:33

Часовой пояс: UTC + 5



Вы не можете начинать темы
Вы не можете отвечать на сообщения
Вы не можете редактировать свои сообщения
Вы не можете удалять свои сообщения
Вы не можете голосовать в опросах
Вы не можете прикреплять файлы к сообщениям
Вы не можете скачивать файлы