Секретные материалы Мстителей: Черная Вдова и Каратель / Avengers Confidential: Black Widow & Punisher [RUS(int)] [2014 г., приключения, HDRip] [Лицензия]

Ответить на тему
 

Zab ®

Стаж: 6 лет 4 месяца

Сообщений: 476

Симпатии: 424

Секретные материалы Мстителей: Черная Вдова и Каратель
Avengers Confidential: Black Widow & Punisher

-Страна: Япония/США
Год выпуска: 2014 г.
Жанр: приключения
Продолжительность: 83 мин. / 01:23
Перевод: Профессиональный многоголосый [Лицензия]-Режиссер: Симидзу Кэнъити-Описание: После вмешательства в сверхсекретные миссии ЩИТа Каратель попадает под контроль Черной вдовы. По приказу Ника Фьюри они отправляются на миссию по борьбе с глобальной террористической организацией Левиафан, которая планирует продать украденные у ЩИТа технологии любому, кто больше заплатит. Теперь убийца и шпионка должны работать вместе, чтобы предотвратить попадание информации не в те руки. На чашу весов положена судьба мира и Мстителей.- -Качество: HDRip
Формат видео: AVI
Видео кодек: XviD
Аудио кодек: AC3
Видео: Xvid 720x400 23.976fps 1972kbps
Аудио: Dolby AC3 48000Hz 6ch 384kbps

Подробные тех. данные

General
Complete name : D:\Sekretnie_material_mstitelej.2014.P.HDRip.avi
Format : AVI
Format/Info : Audio Video Interleave
File size : 1.37 GiB
Duration : 1h 22mn
Overall bit rate : 2 366 Kbps
Writing application : VirtualDubMod 1.5.10.2 (build 2540/release)
Writing library : VirtualDubMod build 2540/release
Video
ID : 0
Format : MPEG-4 Visual
Format profile : Advanced [email protected]
Format settings, BVOP : 2
Format settings, QPel : No
Format settings, GMC : No warppoints
Format settings, Matrix : Default (MPEG)
Codec ID : XVID
Codec ID/Hint : XviD
Duration : 1h 22mn
Bit rate : 1 973 Kbps
Width : 720 pixels
Height : 400 pixels
Display aspect ratio : 16:9
Frame rate : 23.976 fps
Color space : YUV
Chroma subsampling : 4:2:0
Bit depth : 8 bits
Scan type : Progressive
Compression mode : Lossy
Bits/(Pixel*Frame) : 0.286
Stream size : 1.14 GiB (83%)
Writing library : XviD 1.2.1 (UTC 2008-12-04)
Audio
ID : 1
Format : AC-3
Format/Info : Audio Coding 3
Mode extension : CM (complete main)
Format settings, Endianness : Big
Codec ID : 2000
Duration : 1h 22mn
Bit rate mode : Constant
Bit rate : 384 Kbps
Channel(s) : 6 channels
Channel positions : Front: L C R, Side: L R, LFE
Sampling rate : 48.0 KHz
Bit depth : 16 bits
Compression mode : Lossy
Stream size : 227 MiB (16%)
Alignment : Split accross interleaves
Interleave, duration : 42 ms (1.00 video frame)
Interleave, preload duration : 500 ms

Скриншоты

Создавать темы 30-Авг-2014 07:50

[Профиль]  [ЛС] 
Показать сообщения:    
Ответить на тему

Текущее время: 22-Авг 21:49

Часовой пояс: UTC + 5



Вы не можете начинать темы
Вы не можете отвечать на сообщения
Вы не можете редактировать свои сообщения
Вы не можете удалять свои сообщения
Вы не можете голосовать в опросах
Вы не можете прикреплять файлы к сообщениям
Вы не можете скачивать файлы