Доброе утро, Вьетнам / Good Morning, Vietnam (Барри Левинсон) [1987 г., драма, комедия, военный, BDRip 720p]

Ответить на тему
 

lotto ®

Стаж: 7 лет 10 месяцев

Сообщений: 221

Симпатии: 409

Доброе утро, Вьетнам / Good Morning, Vietnam
«Time to rock it from the Delta to the DMZ!»

-
Год выпуска: 1987
Страна: США
Жанр: драма, комедия, военный
Продолжительность: 02:01:38
Перевод: Профессиональный (полное дублирование)
-
Режиссер: Барри Левинсон
В ролях: Робин Уильямс, Форест Уитакер, Бруно Кёрби, Дж.Т. Уолш, Роберт Вул, Ричард Портноу, Тунг Тхань Чан, Чинтара Сукапатана, Ноубл Уиллингэм, Ричард Эдсон
-
Описание: Вьетнам 1965 года — пока еще безмятежный курорт с жарким солнцем, красивыми девушками и привольной службой. Но однажды утром раздался оглушительный взрыв… хохота, когда в эфир армейской радиостанции впервые вышел новый ведущий Эдриан Кронауэр.
Он сразу стал любимцем публики и врагом высокого начальства. И действительно, этот юморист своими шутками и непредсказуемым поведением представляет настоящую угрозу для воинской дисциплины. Но когда в радиоприемниках раздается его знаменитое приветствие «Доброе утро, Вьетнам!», кажется, что в этой солнечной стране никогда не наступит ночь…
-
 
-
Качество: BDRip
Формат: MKV
Видео кодек: H.264
Аудио кодек: AC3
Видео: 1280x688, 23,976 fps, ~3500 Kbps
Аудио 1: AC3, 48.0 KHz, 2 ch, 192 Kbps, CBR (Русский, Дубляж)
Аудио 2: AC3, 48.0 KHz, 6 ch, 384 Kbps, CBR (Русский, многоголосый)
Аудио 3: AC3, 48.0 KHz, 6 ch, 384 Kbps, CBR (Английский)

MediaInfo

Video
ID : 1
Format : AVC
Format/Info : Advanced Video Codec
Format profile : [email protected]
Format settings, CABAC : Yes
Format settings, ReFrames : 6 frames
Codec ID : V_MPEG4/ISO/AVC
Duration : 2h 1mn
Bit rate : 3 500 Kbps
Width : 1 280 pixels
Height : 688 pixels
Display aspect ratio : 1.85:1
Frame rate mode : Constant
Frame rate : 23.976 fps
Color space : YUV
Chroma subsampling : 4:2:0
Bit depth : 8 bits
Scan type : Progressive
Bits/(Pixel*Frame) : 0.166
Stream size : 2.90 GiB (76%)
Writing library : x264 core 119 r2106 07efeb4
Encoding settings : cabac=1 / ref=6 / deblock=1:-1:-1 / analyse=0x3:0x113 / me=esa / subme=7 / psy=1 / psy_rd=1.01:0.00 / mixed_ref=0 / me_range=32 / chroma_me=1 / trellis=2 / 8x8dct=1 / cqm=0 / deadzone=21,11 / fast_pskip=1 / chroma_qp_offset=-2 / threads=9 / sliced_threads=0 / nr=0 / decimate=1 / interlaced=0 / bluray_compat=0 / constrained_intra=0 / bframes=8 / b_pyramid=2 / b_adapt=2 / b_bias=0 / direct=1 / weightb=1 / open_gop=0 / weightp=0 / keyint=250 / keyint_min=23 / scenecut=40 / intra_refresh=0 / rc_lookahead=60 / rc=2pass / mbtree=1 / bitrate=3500 / ratetol=1.0 / qcomp=0.60 / qpmin=15 / qpmax=28 / qpstep=3 / cplxblur=20.0 / qblur=0.5 / ip_ratio=1.40 / aq=2:1.00
Default : No
Forced : No
Audio #1
ID : 2
Format : AC-3
Format/Info : Audio Coding 3
Mode extension : CM (complete main)
Format settings, Endianness : Big
Codec ID : A_AC3
Duration : 2h 1mn
Bit rate mode : Constant
Bit rate : 192 Kbps
Channel(s) : 2 channels
Channel positions : Front: L R
Sampling rate : 48.0 KHz
Bit depth : 16 bits
Compression mode : Lossy
Stream size : 167 MiB (4%)
Default : Yes
Forced : No
Audio #2
ID : 3
Format : AC-3
Format/Info : Audio Coding 3
Mode extension : CM (complete main)
Format settings, Endianness : Big
Codec ID : A_AC3
Duration : 2h 1mn
Bit rate mode : Constant
Bit rate : 384 Kbps
Channel(s) : 6 channels
Channel positions : Front: L C R, Side: L R, LFE
Sampling rate : 48.0 KHz
Bit depth : 16 bits
Compression mode : Lossy
Stream size : 334 MiB (9%)
Default : No
Forced : No
Audio #3
ID : 4
Format : AC-3
Format/Info : Audio Coding 3
Mode extension : CM (complete main)
Format settings, Endianness : Big
Codec ID : A_AC3
Duration : 2h 1mn
Bit rate mode : Constant
Bit rate : 384 Kbps
Channel(s) : 6 channels
Channel positions : Front: L C R, Side: L R, LFE
Sampling rate : 48.0 KHz
Bit depth : 16 bits
Compression mode : Lossy
Stream size : 334 MiB (9%)
Default : No
Forced : No

Скриншоты




Создавать темы 30-Авг-2014 09:40

[Профиль]  [ЛС] 

Coolboy_17

Стаж: 4 года 5 месяцев

Сообщений: 76

Симпатии: 14

Фильм просто Класс, рекомендую всем посмотреть
lotto 5+

Создавать темы 30-Авг-2014 09:47

[Профиль]  [ЛС] 

baxa73

Стаж: 3 года 10 месяцев

Сообщений: 198

Симпатии: 7

Классный был актер(

Создавать темы 30-Авг-2014 09:49

[Профиль]  [ЛС] 

lotto ®

Стаж: 7 лет 10 месяцев

Сообщений: 221

Симпатии: 409

Апофеозная роль Робина Уильямсона.
Комедия и драма в одном флаконе.

Создавать темы 30-Авг-2014 09:53

[Профиль]  [ЛС] 

Топик был перенесен из форума Зарубежное кино в форум HD-AVC
Mixer City

Создавать темы 30-Авг-2014 21:34

 

player546

Стаж: 4 года 3 месяца

Сообщений: 97

Симпатии: 12

870368Аудио 3: AC3, 48.0 KHz, 6 ch, 384 Kbps, CBR (Английский)
Третья дорожка с переводом. Английской дорожки нет! :(

Создавать темы 09-Янв-2015 10:13

[Профиль]  [ЛС] 

Vazgen

Стаж: 4 года 8 месяцев

Сообщений: 7

ребят дайте скорости....очень этот фильм хочу посмотреть

Создавать темы 11-Фев-2015 22:32

[Профиль]  [ЛС] 
Показать сообщения:    
Ответить на тему

Текущее время: 18-Ноя 21:03

Часовой пояс: UTC + 5



Вы не можете начинать темы
Вы не можете отвечать на сообщения
Вы не можете редактировать свои сообщения
Вы не можете удалять свои сообщения
Вы не можете голосовать в опросах
Вы не можете прикреплять файлы к сообщениям
Вы не можете скачивать файлы