Поддубный (Глеб Орлов) [2014 г., Драма, Спорт, Биография HDRip] Лицензия

Ответить на тему
 

NeymaR ®

Стаж: 4 года

Сообщений: 68

Симпатии: 16

Поддубный- Год выпуска: 2014
Страна: Россия
Жанр: Драма, Спорт, Биография
Продолжительность: 01:56:00
Перевод: Оригинал [Лицензия]-Режиссер: Глеб Орлов-В ролях: Михаил Пореченков. Дени Лаван. Владимир Ильин. Юрий Колокольников. Роман Мадянов. Александр Михайлов. Катерина Шпица. Максим Сапрыкин. Петр Крылов .Андрей Дебрин ...-Описание: Его называли Чемпион чемпионов. О силе и волевом характере Поддубного слагали легенды. И в 50 великий борец играючи одолевал молодых атлетов, а вопросах чести и справедливости не знал компромиссов. И лишь любовь смогла уложить Русского Богатыря на обе лопатки...-Доп. информация:

6+ зрителям, достигшим 6 лет-Качество: HDRip
Формат: AVI
Видео кодек: XviD
Аудио кодек: AC-3
Видео: XviD; 720x304; 1141 Кбит/сек; 25.000 fps
Аудио: AC-3; 48.0 КГц; 448 Кбит/сек; 6-ch;
-

Media INFO

General
Complete name : D:\Фильмы 09.08.2014\P0ddUbn1y_2014_HDRip(AZIK6249).avi
Format : AVI
Format/Info : Audio Video Interleave
File size : 1.37 GiB
Duration : 1h 57mn
Overall bit rate : 1 664 Kbps
Writing application : VirtualDubMod 1.5.10.2 (build 2540/release)
Writing library : VirtualDubMod build 2540/release
Video
ID : 0
Format : MPEG-4 Visual
Codec ID : XVID
Codec ID/Hint : XviD
Duration : 1h 57mn
Bit rate : 1 141 Kbps
Width : 720 pixels
Height : 304 pixels
Display aspect ratio : 2.35:1
Frame rate : 25.000 fps
Color space : YUV
Chroma subsampling : 4:2:0
Compression mode : Lossy
Bits/(Pixel*Frame) : 0.208
Stream size : 960 MiB (69%)
Audio
ID : 1
Format : AC-3
Format/Info : Audio Coding 3
Mode extension : CM (complete main)
Format settings, Endianness : Big
Codec ID : 2000
Duration : 1h 57mn
Bit rate mode : Constant
Bit rate : 448 Kbps
Channel(s) : 6 channels
Channel positions : Front: L C R, Side: L R, LFE
Sampling rate : 48.0 KHz
Bit depth : 16 bits
Compression mode : Lossy
Stream size : 377 MiB (27%)
Alignment : Aligned on interleaves
-

Скриншоты

Создавать темы 30-Авг-2014 12:33

[Профиль]  [ЛС] 
Показать сообщения:    
Ответить на тему

Текущее время: 23-Ноя 06:41

Часовой пояс: UTC + 5



Вы не можете начинать темы
Вы не можете отвечать на сообщения
Вы не можете редактировать свои сообщения
Вы не можете удалять свои сообщения
Вы не можете голосовать в опросах
Вы не можете прикреплять файлы к сообщениям
Вы не можете скачивать файлы