BBC: Конец света/ BBC: End Day [2005, триллер, драма ,SATRip]

Ответить на тему
 

HYUGO ®

Стаж: 3 года 8 месяцев

Сообщений: 95

Симпатии: 40

-Год выпуска:2005
Страна:Великобритания
Жанр:триллер, драма
Продолжительность:00:48:27
Перевод:Профессиональный (двуголосый)-Режиссёр:
Гарет Эдвардс-В ролях:
Роберт Эндрюс ,Гленн Конрой ,Крэйг Корт ,Allan Edwards ,Ивонн Эдвардс ,Зои Эллиотт ,Стивен Гомез ,Дэвид Райли ,Алан Тейлор-Описание:
Ученые давно пришли к выводу, что апокалипсис более чем вероятен. Другое дело, что никто из них не может точно сказать, когда именно это произойдет. Новый фильм -катастрофа на основе гипотез современных экспертов при помощи сверхреалистичной компьютерном графики предлагает нам стать свидетелями четырех возможных вариантов апокалипсиса. Это и независящие от нас природные катаклизмы, типа невероятной силы цунами или гигантского метеорита, и такие, к которым приложил руку сам человек — неудачный научный эксперимент или разработка новейшего химического оружия.
Четыре трагических сценария, предсказанные учеными, оформлены в виде «документальных репортажей», что придает картине еще больший драматизм. Первый сюжет рассказывает, как огромная волна хоронит под собой Нью-Йорк. Главным героем второго сюжета стал метеорит, превративший Берлин в громадный кратер. В третьем сюжете неизвестный вирус проникает пассажирским рейсом в Великобританию, вызывая ПОГОЛОВНЫЙ мор всего живого. И, наконец, четвертый сюжет рассказывает, что может случиться, если слишком пытливые научные умы захотят воссоздать черную дыру в лабораторных условиях. Ну что, уважаемые телезрители? Как вы считаете, какой именно конец заслуживает наша цивилизация?-Качество:SATRip
Формат:AVI
Видео:DivX 5 576x416 25fps 1631kbps
Аудио:Dolby AC3 48000Hz 6ch 384kbps

Media Info

General
Complete name : D:\разное\bbc_end_days.avi
Format : AVI
Format/Info : Audio Video Interleave
File size : 702 MiB
Duration : 48mn 26s
Overall bit rate : 2 025 Kbps
Writing application : VirtualDubMod 1.5.10.2 (build 2540/release)
Writing library : VirtualDubMod build 2540/release
Video
ID : 0
Format : MPEG-4 Visual
Format settings, BVOP : Yes
Format settings, QPel : No
Format settings, GMC : No warppoints
Format settings, Matrix : Default (H.263)
Codec ID : DX50
Codec ID/Hint : DivX 5
Duration : 48mn 26s
Bit rate : 1 632 Kbps
Width : 576 pixels
Height : 416 pixels
Display aspect ratio : 1.385
Frame rate : 25.000 fps
Color space : YUV
Chroma subsampling : 4:2:0
Bit depth : 8 bits
Scan type : Progressive
Compression mode : Lossy
Bits/(Pixel*Frame) : 0.272
Stream size : 565 MiB (81%)
Writing library : DivX 5.2.1 (WaffleDay) (UTC 2004-09-08)
Audio
ID : 1
Format : AC-3
Format/Info : Audio Coding 3
Mode extension : CM (complete main)
Format settings, Endianness : Big
Codec ID : 2000
Duration : 48mn 26s
Bit rate mode : Constant
Bit rate : 384 Kbps
Channel(s) : 6 channels
Channel positions : Front: L C R, Side: L R, LFE
Sampling rate : 48.0 KHz
Bit depth : 16 bits
Compression mode : Lossy
Stream size : 133 MiB (19%)
Alignment : Split accross interleaves
Interleave, duration : 40 ms (1.00 video frame)
Interleave, preload duration : 500 ms

Скриншоты

Создавать темы 31-Авг-2014 22:02

[Профиль]  [ЛС] 

ReD TiGeR

Стаж: 5 лет 3 месяца

Сообщений: 135

Симпатии: 2

"Что может случиться, если слишком пытливые научные умы захотят воссоздать черную дыру в лабораторных условиях." это уже за гранью реальности

Создавать темы 01-Сен-2014 01:56

[Профиль]  [ЛС] 
Показать сообщения:    
Ответить на тему

Текущее время: 19-Окт 15:57

Часовой пояс: UTC + 5



Вы не можете начинать темы
Вы не можете отвечать на сообщения
Вы не можете редактировать свои сообщения
Вы не можете удалять свои сообщения
Вы не можете голосовать в опросах
Вы не можете прикреплять файлы к сообщениям
Вы не можете скачивать файлы