Дух времени/Zeitgeist(Питер Джозеф) [2007, документальный, исторический, SATRip]

Ответить на тему
 

HYUGO ®

Стаж: 3 года 9 месяцев

Сообщений: 95

Симпатии: 40

- -Год выпуска:2007
Страна:США
Жанр:документальный, исторический
Продолжительность:01:58:08
Перевод:Профессиональный (одноголосый)-Режиссёр:
Питер Джозеф-В ролях:
Чогьям Трунгпа ,Джордан Максвелл ,Джордж Карлин ,Билл Хикс ,Др. Дэвид ,Рэй Гриффин ,Джозеф Касалигги ,Кандолиза Райс ,Дик Чейни ,Энтони Шэффер ,Курт Уэлдон-Описание:
В фильме поднимается вопрос массового контроля над людьми — религия, политика, масс-медиа, финансы. Все ли, что мы видим, правда, или не хотим ее замечать? Настолько ли светло наше будущее? Вот лишь некоторые вопросы, которые обязательно возникнут в голове после просмотра.-Качество:SATRip
Формат:AVI
Видео: Xvid 640x480 23.975fps 692kbps
Аудио: MP3 44100Hz stereo 159kbps

Media Info

General
Complete name : D:\разное\Duh.vremeni_Zeitgeist.avi
Format : AVI
Format/Info : Audio Video Interleave
File size : 728 MiB
Duration : 1h 58mn
Overall bit rate : 862 Kbps
Writing application : VirtualDubMod 1.5.10.2 (build 2542/release)
Writing library : VirtualDubMod build 2542/release
Video
ID : 0
Format : MPEG-4 Visual
Format profile : Advanced [email protected]
Format settings, BVOP : Yes
Format settings, QPel : No
Format settings, GMC : No warppoints
Format settings, Matrix : Default (H.263)
Codec ID : XVID
Codec ID/Hint : XviD
Duration : 1h 58mn
Bit rate : 692 Kbps
Width : 640 pixels
Height : 480 pixels
Display aspect ratio : 4:3
Frame rate : 23.976 fps
Color space : YUV
Chroma subsampling : 4:2:0
Bit depth : 8 bits
Scan type : Progressive
Compression mode : Lossy
Bits/(Pixel*Frame) : 0.094
Stream size : 585 MiB (80%)
Writing library : XviD 1.1.2 (UTC 2006-11-01)
Audio
ID : 1
Format : MPEG Audio
Format version : Version 1
Format profile : Layer 3
Mode : Joint stereo
Mode extension : MS Stereo
Codec ID : 55
Codec ID/Hint : MP3
Duration : 1h 58mn
Bit rate mode : Constant
Bit rate : 160 Kbps
Channel(s) : 2 channels
Sampling rate : 44.1 KHz
Compression mode : Lossy
Stream size : 135 MiB (19%)
Alignment : Aligned on interleaves
Interleave, duration : 42 ms (1.00 video frame)
Interleave, preload duration : 522 ms

Скриншоты




Создавать темы 31-Авг-2014 22:09

[Профиль]  [ЛС] 
Показать сообщения:    
Ответить на тему

Текущее время: 22-Ноя 21:22

Часовой пояс: UTC + 5



Вы не можете начинать темы
Вы не можете отвечать на сообщения
Вы не можете редактировать свои сообщения
Вы не можете удалять свои сообщения
Вы не можете голосовать в опросах
Вы не можете прикреплять файлы к сообщениям
Вы не можете скачивать файлы