Жизнь после людей / Life After People (Дэвид де Фриз) [2008, документальный, фантастика, DVDRip]

Ответить на тему
 

HYUGO ®

Стаж: 3 года 8 месяцев

Сообщений: 95

Симпатии: 40

Год выпуска:2008
Страна:США
Жанр:документальный, фантастика
Продолжительность:01:28:43
Перевод:Профессиональный (одноголосый)--Режиссёр:Дэвид де Фриз--В ролях:
сценарий: Дэвид де Фриз
продюсер: Дэвид де Фриз, Винсент Лопез, Дуглас Коэн
Струан Роджер ,Джон Андерсон ,Дэвид Брин ,Билл Брунинга ,Рон Чессер ,Рэй Коппинджер
Эрик Доне ,Сергей Гащак ,Джон Хадидиан ,Кевин Харрисон--Описание:
Научно-популярный фильм, в котором ученые рассуждают на тему того, что произойдет с планетой, животными и растениями, если человек исчезнет, а также о том, как долго после исчезновения человечества будут существовать созданные им памятники и артефакты. Данные фильм основан на результатах исследования территорий, внезапно покинутых людьми, а также возможных последствий прекращения ухода за зданиями и городской инфраструктурой.
Гипотеза о покинутом мире иллюстрирована цифровыми изображениями, показывающими последующую участь таких архитектурных шедевров, как Эмпайр-Стейт-Билдинг, Букингемский дворец, Сирс-Тауэр, Спейс Нидл, мост Золотые ворота и Эйфелева башня.-Качество:DVDRip
Формат:AVI
Видео: Xvid 624x352 23.976fps 959kbps
Аудио:MP3 48000Hz 2ch 128kbps

Media Info

General
Complete name : D:\разное\Life.After.People.2008.avi
Format : AVI
Format/Info : Audio Video Interleave
File size : 696 MiB
Duration : 1h 28mn
Overall bit rate : 1 097 Kbps
Writing application : VirtualDubModRus 1.5.10.2 (build 2540/release)
Writing library : VirtualDubMod build 2540/release
Video
ID : 0
Format : MPEG-4 Visual
Format profile : Advanced [email protected]
Format settings, BVOP : Yes
Format settings, QPel : No
Format settings, GMC : No warppoints
Format settings, Matrix : Default (H.263)
Codec ID : XVID
Codec ID/Hint : XviD
Duration : 1h 28mn
Bit rate : 960 Kbps
Width : 624 pixels
Height : 352 pixels
Display aspect ratio : 16:9
Frame rate : 23.976 fps
Color space : YUV
Chroma subsampling : 4:2:0
Bit depth : 8 bits
Scan type : Progressive
Compression mode : Lossy
Bits/(Pixel*Frame) : 0.182
Stream size : 609 MiB (87%)
Writing library : XviD 1.2.0.dev47 (UTC 2006-11-01)
Audio
ID : 1
Format : MPEG Audio
Format version : Version 1
Format profile : Layer 3
Mode : Joint stereo
Codec ID : 55
Codec ID/Hint : MP3
Duration : 1h 28mn
Bit rate mode : Constant
Bit rate : 128 Kbps
Channel(s) : 2 channels
Sampling rate : 48.0 KHz
Compression mode : Lossy
Stream size : 81.2 MiB (12%)
Alignment : Aligned on interleaves
Interleave, duration : 42 ms (1.00 video frame)
Interleave, preload duration : 504 ms

Скриншоты




Создавать темы 31-Авг-2014 22:14

[Профиль]  [ЛС] 

Slapper

Стаж: 3 года 10 месяцев

Сообщений: 2193

Симпатии: 213

В ролях:
сценарий: Дэвид де Фриз
продюсер: Дэвид де Фриз, Винсент Лопез, Дуглас Коэн
Струан Роджер ,Джон Андерсон ,Дэвид Брин ,Билл Брунинга ,Рон Чессер ,Рэй Коппинджер
Эрик Доне ,Сергей Гащак ,Джон Хадидиан ,Кевин Харрисон
- исправляйте

Создавать темы 31-Авг-2014 22:37

[Профиль]  [ЛС] 

ReD TiGeR

Стаж: 5 лет 2 месяца

Сообщений: 135

Симпатии: 2

HYUGO, походу деньги на счёт не положил

Создавать темы 01-Сен-2014 20:16

[Профиль]  [ЛС] 

Faxriddin29

Стаж: 4 года 8 месяцев

Сообщений: 26

Симпатии: 1

Помогу с раздачей, если автор не против

Создавать темы 02-Сен-2014 13:20

[Профиль]  [ЛС] 

ReD TiGeR

Стаж: 5 лет 2 месяца

Сообщений: 135

Симпатии: 2

871146Faxriddin29
я не против)

Создавать темы 03-Сен-2014 13:27

[Профиль]  [ЛС] 

ReD TiGeR

Стаж: 5 лет 2 месяца

Сообщений: 135

Симпатии: 2

Ооо сидирующие, наконец-то

Создавать темы 03-Сен-2014 20:42

[Профиль]  [ЛС] 
Показать сообщения:    
Ответить на тему

Текущее время: 27-Сен 03:57

Часовой пояс: UTC + 5



Вы не можете начинать темы
Вы не можете отвечать на сообщения
Вы не можете редактировать свои сообщения
Вы не можете удалять свои сообщения
Вы не можете голосовать в опросах
Вы не можете прикреплять файлы к сообщениям
Вы не можете скачивать файлы