Как приручить дракона 2 / How to Train Your Dragon 2 (Дин ДеБлуа) [2014 г., мультфильм, фэнтези, комедия, приключения, семейный, WEB-DLRip][iTunes]

Ответить на тему
 

Zab ®

Стаж: 6 лет 7 месяцев

Сообщений: 476

Симпатии: 424

Как приручить дракона 2 / How to Train Your Dragon 2____________________________________________________________________________________________________ -Год выпуска: 2014
Производство: США
Жанр: мультфильм, фэнтези, комедия, приключения, семейный
Перевод: Профессиональный (полное дублирование) [iTunes]
Субтитры: Отсутствуют
Продолжительность: 01:42:13-Режиссер: Дин ДеБлуа / Dean DeBlois-В ролях: Джей Барушель. Кейт Бланшетт, Джерард Батлер, Крэйг Фергюсон, Америка Феррера, Джона Хилл, Кристофер Минц-Плассе, ТиДжей Миллер, Кристен Уиг, Джимон Хонсу-Описание: С момента примирения викингов и драконов прошло пять лет. Пока Астрид, Сморкала и остальные ребята проводят время, соревнуясь друг с другом в популярных на острове драконьих гонках, Иккинг и Беззубик путешествуют по небу, составляя карту неизвестных мест. Когда одно из их приключений приводит к открытию тайной ледяной пещеры, которая является домом для сотен ранее невиданных диких драконов и таинственного драконьего всадника, два друга оказываются в центре битвы за защиту мира.- -Качество: WEB-DLRip [Рип с WEB-DL 720p]
Формат: AVI
Видеокодек: XviD
Аудиокодек: AC3
Видео: 720x304 (2.35:1), 23.976 fps, 1 647 Kbps (0.314 bit/pixel)
Аудио: AC-3, 48.0 KHz, 6 ch, 384 Kbps, CBR-

MediaInfo

General
Полное имя : D:\Kak.priru4it.drakona.2.2014.avi
Формат : AVI
Формат/Информация : Audio Video Interleave
Размер файла : 1.46 GiB
Продолжительность : 1h 42mn
Общий поток : 2 039 Kbps
Программа кодирования : VirtualDubMod 1.5.10.2 (build 2540/release)
Библиотека кодирования : VirtualDubMod build 2540/release
Video
Идентификатор : 0
Формат : MPEG-4 Visual
Профиль формата : Advanced [email protected]
Параметр BVOP формата : 2
Параметр QPel формата : No
Параметр GMC формата : No warppoints
Параметр матрицы формата : Default (MPEG)
Идентификатор кодека : XVID
Идентификатор кодека/Подсказка : XviD
Продолжительность : 1h 42mn
Битрейт : 1 647 Kbps
Ширина : 720 pixels
Высота : 304 pixels
Соотношение сторон : 2.35:1
Частота кадров : 23.976 fps
Цветовое пространство : YUV
Субдискретизация насыщенности : 4:2:0
Битовая глубина : 8 bits
Тип развёртки : Progressive
Метод сжатия : Lossy
Бит/(Пиксели*Кадры) : 0.314
Размер потока : 1.18 GiB (81%)
Библиотека кодирования : XviD 1.2.1 (UTC 2008-12-04)
Audio
Идентификатор : 1
Формат : AC-3
Формат/Информация : Audio Coding 3
Расширение режима : CM (complete main)
Параметр Endianness формата : Big
Идентификатор кодека : 2000
Продолжительность : 1h 41mn
Вид битрейта : Constant
Битрейт : 384 Kbps
Каналы : 6 channels
Расположение каналов : Front: L C R, Side: L R, LFE
Частота : 48.0 KHz
Битовая глубина : 16 bits
Метод сжатия : Lossy
Размер потока : 280 MiB (19%)
Выравнивание : Split accross interleaves
Продолжительность промежутка : 42 ms (1.00 video frame)
Время предзагрузки промежутка : 500 ms

Скриншоты





Последний раз редактировалось: Zab (2014-10-02 16:16), всего редактировалось 1 раз

Создавать темы 01-Сен-2014 03:01

[Профиль]  [ЛС] 

Страх

Стаж: 4 года 1 месяц

Сообщений: 1131

Симпатии: 448

добавился в раздачу, сказал бы, я скачал бы). плюс 3мб раздачи)

Создавать темы 01-Сен-2014 14:47

[Профиль]  [ЛС] 

flatout

Стаж: 4 года 1 месяц

Сообщений: 2

у спс класс ))

Создавать темы 01-Сен-2014 15:13

[Профиль]  [ЛС] 

okden

Стаж: 7 лет 5 месяцев

Сообщений: 19

СПАСИБО!!

Создавать темы 05-Сен-2014 21:42

[Профиль]  [ЛС] 

aziko

Стаж: 6 лет 7 месяцев

Сообщений: 47

Симпатии: 7

картинка и дубляж норм?

Создавать темы 05-Сен-2014 23:50

[Профиль]  [ЛС] 
Показать сообщения:    
Ответить на тему

Текущее время: 23-Ноя 08:53

Часовой пояс: UTC + 5



Вы не можете начинать темы
Вы не можете отвечать на сообщения
Вы не можете редактировать свои сообщения
Вы не можете удалять свои сообщения
Вы не можете голосовать в опросах
Вы не можете прикреплять файлы к сообщениям
Вы не можете скачивать файлы