Формула 1. Сезон 2003 г. Гонки (16 этапов из 16) ["Premiere", "TEN Sport", "ITV", "ORF1"] SATRip

Ответить на тему
 

M.J. ®

Стаж: 4 года 1 месяц

Сообщений: 25

Симпатии: 8

Формула 1. Сезон 2003 г.
-Год выпуска: 2003
Вид спорта: Формула 1
Участники: Пилоты королевских гонок
Продолжительность: 16 этапов
Комментарий: Профессиональный
Язык комментариев: русский
Описание: Все этапы Чемпионата Мира в классе автогонок Формула-1 2003-го года
Качество: SATRip
Канал: Premiere, TEN Sport, ITV, ORF1-

Этап 1. 09.03.2003. Гран При Австралии, Мельбурн

-File size: 2158.08 MBytes
Duration: 02:03:06.848
Overall bitrate: 2451 Kbps
Video: 720x544 (1.412) @ 768x544, 50.000 fps, AVC, ~2235 Kbps, 0.114 bits/pixel
Audio: Russian, 48.0 KHz, AC3, 2 ch, 160 Kbps-

Media Info


General
Unique ID : 216107429002366268246337612994756661607 (0xA294C6E115AD44A8BD9CDD74079ED167)
Format : Matroska
Format version : Version 4 / Version 2
File size : 2.11 GiB
Duration : 2h 3mn
Overall bit rate : 2 451 Kbps
Movie name : 2003 Foster's Australian Grand Prix round 1 ru
Encoded date : UTC 2013-06-22 11:32:47
Writing application : mkvmerge v6.2.0 ('Promised Land') built on Apr 28 2013 12:22:01
Writing library : libebml v1.3.0 + libmatroska v1.4.0
Video
ID : 1
Format : AVC
Format/Info : Advanced Video Codec
Format profile : [email protected]
Format settings, CABAC : Yes
Format settings, ReFrames : 5 frames
Codec ID : V_MPEG4/ISO/AVC
Duration : 2h 3mn
Bit rate : 2 235 Kbps
Width : 720 pixels
Height : 544 pixels
Display aspect ratio : 1.412
Frame rate mode : Constant
Frame rate : 50.000 fps
Color space : YUV
Chroma subsampling : 4:2:0
Bit depth : 8 bits
Scan type : Progressive
Bits/(Pixel*Frame) : 0.114
Stream size : 1.93 GiB (91%)
Writing library : x264 core 98 r1649 c54c47d
Encoding settings : cabac=1 / ref=5 / deblock=1:-2:-1 / analyse=0x3:0x113 / me=hex / subme=7 / psy=1 / psy_rd=1.00:0.00 / mixed_ref=1 / me_range=16 / chroma_me=1 / trellis=2 / 8x8dct=1 / cqm=0 / deadzone=21,11 / fast_pskip=1 / chroma_qp_offset=-2 / threads=6 / sliced_threads=0 / nr=0 / decimate=1 / interlaced=0 / constrained_intra=0 / bframes=4 / b_pyramid=2 / b_adapt=2 / b_bias=0 / direct=3 / weightb=1 / weightp=2 / keyint=250 / keyint_min=25 / scenecut=40 / intra_refresh=0 / rc_lookahead=60 / rc=2pass / mbtree=1 / bitrate=2235 / ratetol=2.0 / qcomp=0.60 / qpmin=10 / qpmax=51 / qpstep=4 / cplxblur=20.0 / qblur=0.5 / ip_ratio=1.40 / aq=1:1.00
Language : English
Default : Yes
Forced : No
Audio
ID : 2
Format : AC-3
Format/Info : Audio Coding 3
Mode extension : CM (complete main)
Format settings, Endianness : Big
Codec ID : A_AC3
Duration : 2h 3mn
Bit rate mode : Constant
Bit rate : 160 Kbps
Channel(s) : 2 channels
Channel positions : Front: L R
Sampling rate : 48.0 KHz
Bit depth : 16 bits
Compression mode : Lossy
Stream size : 141 MiB (7%)
Language : Russian
Default : Yes
Forced : No
-

Этап 2. 23.03.2003. Гран При Малайзии, Сепанг

-File size: 2039.98 MBytes
Duration: 02:04:46.696
Overall bitrate: 2286 Kbps
Video: 700x544 (1.375) @ 748x544, 50.000 fps, AVC, ~2080 Kbps, 0.109 bits/pixel
Audio: Russian, 48.0 KHz, AC3, 2 ch, 160 Kbps-

Media Info


General
Unique ID : 197824358467880790320623158064784652746 (0x94D395E7EE8B5C06AD360D2DB928B9CA)
Format : Matroska
Format version : Version 4 / Version 2
File size : 1.99 GiB
Duration : 2h 4mn
Overall bit rate : 2 286 Kbps
Movie name : 2003 Petronas Malaysian Grand Prix round 2 ru
Encoded date : UTC 2013-06-20 03:04:08
Writing application : mkvmerge v6.2.0 ('Promised Land') built on Apr 28 2013 12:22:01
Writing library : libebml v1.3.0 + libmatroska v1.4.0
Video
ID : 1
Format : AVC
Format/Info : Advanced Video Codec
Format profile : [email protected]
Format settings, CABAC : Yes
Format settings, ReFrames : 5 frames
Codec ID : V_MPEG4/ISO/AVC
Duration : 2h 4mn
Bit rate : 2 080 Kbps
Width : 700 pixels
Height : 544 pixels
Display aspect ratio : 1.375
Frame rate mode : Constant
Frame rate : 50.000 fps
Color space : YUV
Chroma subsampling : 4:2:0
Bit depth : 8 bits
Scan type : Progressive
Bits/(Pixel*Frame) : 0.109
Stream size : 1.81 GiB (91%)
Language : English
Default : Yes
Forced : No
Audio
ID : 2
Format : AC-3
Format/Info : Audio Coding 3
Mode extension : CM (complete main)
Format settings, Endianness : Big
Codec ID : A_AC3
Duration : 2h 4mn
Bit rate mode : Constant
Bit rate : 160 Kbps
Channel(s) : 2 channels
Channel positions : Front: L R
Sampling rate : 48.0 KHz
Bit depth : 16 bits
Compression mode : Lossy
Delay relative to video : 8ms
Stream size : 143 MiB (7%)
Language : Russian
Default : Yes
Forced : No
-

Этап 3. 06.04.2003. Гран При Бразилии, Интерлагос

-File size: 3496.00 MBytes
Duration: 02:07:21.392
Overall bitrate: 3838 Kbps
Video: 720x576 (4:3) @ 768x576, 50.000 fps, AVC, ~3569 Kbps, 0.172 bits/pixel
Audio: Russian, 48.0 KHz, AC3, 2 ch, 192 Kbps-

Media Info


General
Unique ID : 174180822798125904682564170300230286232 (0x830A0198B6F8275AB1608F3084753B98)
Format : Matroska
Format version : Version 4 / Version 2
File size : 3.41 GiB
Duration : 2h 7mn
Overall bit rate : 3 838 Kbps
Movie name : 2003 32° Grande Premio do Brasil round 3 ru
Encoded date : UTC 2013-06-23 06:51:51
Writing application : mkvmerge v6.2.0 ('Promised Land') built on Apr 28 2013 12:22:01
Writing library : libebml v1.3.0 + libmatroska v1.4.0
Video
ID : 1
Format : AVC
Format/Info : Advanced Video Codec
Format profile : [email protected]
Format settings, CABAC : Yes
Format settings, ReFrames : 5 frames
Codec ID : V_MPEG4/ISO/AVC
Duration : 2h 7mn
Bit rate : 3 569 Kbps
Width : 720 pixels
Height : 576 pixels
Display aspect ratio : 4:3
Frame rate mode : Constant
Frame rate : 50.000 fps
Standard : PAL
Color space : YUV
Chroma subsampling : 4:2:0
Bit depth : 8 bits
Scan type : Progressive
Bits/(Pixel*Frame) : 0.172
Stream size : 3.18 GiB (93%)
Language : English
Default : Yes
Forced : No
Audio
ID : 2
Format : AC-3
Format/Info : Audio Coding 3
Mode extension : CM (complete main)
Format settings, Endianness : Big
Codec ID : A_AC3
Duration : 2h 7mn
Bit rate mode : Constant
Bit rate : 192 Kbps
Channel(s) : 2 channels
Channel positions : Front: L R
Sampling rate : 48.0 KHz
Bit depth : 16 bits
Compression mode : Lossy
Delay relative to video : 16ms
Stream size : 175 MiB (5%)
Language : Russian
Default : Yes
Forced : No
-

Этап 4. 20.04.2003. Гран При Сан-Марино, Имола

-File size: 1845.94 MBytes
Duration: 01:53:26.933
Overall bitrate: 2275 Kbps
Video: 720x576 (5:4), 25.000 fps, AVC
Audio: Russian, 48.0 KHz, AAC LC, 2 ch-

Media Info


General
Unique ID : 210890867965168534125899169478815267517 (0x9EA81A9017F3CA02B4CECC1A8F3C3ABD)
Format : Matroska
Format version : Version 4 / Version 2
File size : 1.80 GiB
Duration : 1h 53mn
Overall bit rate : 2 275 Kbps
Movie name : 2003 23° Gran Premio di San Marino round 4 ru
Encoded date : UTC 2013-06-24 17:51:53
Writing application : mkvmerge v6.2.0 ('Promised Land') built on Apr 28 2013 12:22:01
Writing library : libebml v1.3.0 + libmatroska v1.4.0
Video
ID : 1
Format : AVC
Format/Info : Advanced Video Codec
Format profile : [email protected]
Format settings, CABAC : Yes
Format settings, ReFrames : 3 frames
Codec ID : V_MPEG4/ISO/AVC
Duration : 1h 53mn
Nominal bit rate : 2 145 Kbps
Width : 720 pixels
Height : 576 pixels
Display aspect ratio : 5:4
Frame rate mode : Constant
Frame rate : 25.000 fps
Standard : PAL
Color space : YUV
Chroma subsampling : 4:2:0
Bit depth : 8 bits
Scan type : Progressive
Bits/(Pixel*Frame) : 0.207
Writing library : x264 core 132 r2310 76a5c3a
Encoding settings : cabac=1 / ref=2 / deblock=1:0:0 / analyse=0x3:0x113 / me=hex / subme=7 / psy=0 / mixed_ref=1 / me_range=16 / chroma_me=1 / trellis=1 / 8x8dct=1 / cqm=0 / deadzone=21,11 / fast_pskip=1 / chroma_qp_offset=0 / threads=6 / lookahead_threads=1 / sliced_threads=0 / nr=0 / decimate=1 / interlaced=0 / bluray_compat=0 / constrained_intra=0 / bframes=3 / b_pyramid=1 / b_adapt=1 / b_bias=0 / direct=1 / weightb=1 / open_gop=0 / weightp=2 / keyint=250 / keyint_min=25 / scenecut=40 / intra_refresh=0 / rc_lookahead=40 / rc=2pass / mbtree=1 / bitrate=2145 / ratetol=1.0 / qcomp=0.60 / qpmin=0 / qpmax=69 / qpstep=4 / cplxblur=20.0 / qblur=0.5 / ip_ratio=1.40 / aq=1:1.00
Language : English
Default : Yes
Forced : No
Audio
ID : 2
Format : AAC
Format/Info : Advanced Audio Codec
Format profile : LC
Codec ID : A_AAC
Duration : 1h 53mn
Channel(s) : 2 channels
Channel positions : Front: L R
Sampling rate : 48.0 KHz
Compression mode : Lossy
Language : Russian
Default : Yes
Forced : No
-

Этап 5. 04.05.2003. Гран При Испании, Каталунья-Монмело

-File size: 1857.52 MBytes
Duration: 01:54:02.008
Overall bitrate: 2277 Kbps
Video: 720x576 (5:4), 50.000 fps, AVC, ~2072 Kbps, 0.100 bits/pixel
Audio: Russian, 48.0 KHz, AC3, 2 ch, 160 Kbps-

Media Info


General
Unique ID : 172143075160183846780453972707941299506 (0x81818CE19302C1CBA1ACD5F35B003532)
Format : Matroska
Format version : Version 4 / Version 2
File size : 1.81 GiB
Duration : 1h 54mn
Overall bit rate : 2 277 Kbps
Movie name : 2003 47° Gran Premio Marlboro de Espana round 5 ru
Encoded date : UTC 2013-06-28 18:19:50
Writing application : mkvmerge v6.2.0 ('Promised Land') built on Apr 28 2013 12:22:01
Writing library : libebml v1.3.0 + libmatroska v1.4.0
Video
ID : 1
Format : AVC
Format/Info : Advanced Video Codec
Format profile : [email protected]
Format settings, CABAC : Yes
Format settings, ReFrames : 5 frames
Codec ID : V_MPEG4/ISO/AVC
Duration : 1h 54mn
Bit rate : 2 072 Kbps
Width : 720 pixels
Height : 576 pixels
Display aspect ratio : 5:4
Original display aspect ratio : 4:3
Frame rate mode : Constant
Frame rate : 50.000 fps
Standard : PAL
Color space : YUV
Chroma subsampling : 4:2:0
Bit depth : 8 bits
Scan type : Progressive
Bits/(Pixel*Frame) : 0.100
Stream size : 1.65 GiB (91%)
Language : English
Default : Yes
Forced : No
Audio
ID : 2
Format : AC-3
Format/Info : Audio Coding 3
Mode extension : CM (complete main)
Format settings, Endianness : Big
Codec ID : A_AC3
Duration : 1h 54mn
Bit rate mode : Constant
Bit rate : 160 Kbps
Channel(s) : 2 channels
Channel positions : Front: L R
Sampling rate : 48.0 KHz
Bit depth : 16 bits
Compression mode : Lossy
Delay relative to video : 24ms
Stream size : 131 MiB (7%)
Language : Russian
Default : Yes
Forced : No
-

Этап 6. 18.05.2003. Гран При Австрии, Ред Булл Ринг

-File size: 3200.82 MBytes
Duration: 01:59:04.144
Overall bitrate: 3758 Kbps
Video: 720x576 (5:4), 50.000 fps, AVC, ~3428 Kbps, 0.165 bits/pixel
Audio: Russian, 48.0 KHz, AC3, 2 ch, 256 Kbps-

Media Info


General
Unique ID : 184701009693606579860557692521808981192 (0x8AF41EDB3BF0317282A856F30E20ECC8)
Format : Matroska
Format version : Version 4 / Version 2
File size : 3.13 GiB
Duration : 1h 59mn
Overall bit rate : 3 758 Kbps
Movie name : 2003 Grosser A1 Preis von Osterreich round 6 ru
Encoded date : UTC 2013-06-30 10:03:59
Writing application : mkvmerge v6.3.0 ('You can't stop me!') built on Jun 28 2013 20:09:41
Writing library : libebml v1.3.0 + libmatroska v1.4.0
Video
ID : 1
Format : AVC
Format/Info : Advanced Video Codec
Format profile : [email protected]
Format settings, CABAC : Yes
Format settings, ReFrames : 5 frames
Codec ID : V_MPEG4/ISO/AVC
Duration : 1h 59mn
Bit rate : 3 428 Kbps
Width : 720 pixels
Height : 576 pixels
Display aspect ratio : 5:4
Original display aspect ratio : 4:3
Frame rate mode : Constant
Frame rate : 50.000 fps
Standard : PAL
Color space : YUV
Chroma subsampling : 4:2:0
Bit depth : 8 bits
Scan type : Progressive
Bits/(Pixel*Frame) : 0.165
Stream size : 2.85 GiB (91%)
Language : English
Default : Yes
Forced : No
Audio
ID : 2
Format : AC-3
Format/Info : Audio Coding 3
Mode extension : CM (complete main)
Format settings, Endianness : Big
Codec ID : A_AC3
Duration : 1h 59mn
Bit rate mode : Constant
Bit rate : 256 Kbps
Channel(s) : 2 channels
Channel positions : Front: L R
Sampling rate : 48.0 KHz
Bit depth : 16 bits
Compression mode : Lossy
Delay relative to video : 16ms
Stream size : 218 MiB (7%)
Language : Russian
Default : Yes
Forced : No
-

Этап 7. 01.06.2003. Гран При Монако, Монте-Карло

-File size: 3246.26 MBytes
Duration: 02:00:42.624
Overall bitrate: 3760 Kbps
Video: 720x576 (5:4), 50.000 fps, AVC, ~3500 Kbps, 0.169 bits/pixel
Audio: Russian, 48.0 KHz, AC3, 2 ch, 256 Kbps-

Media Info


General
Unique ID : 245281609717665394764525515037386209110 (0xB887850AD0AB20739141563DD937F756)
Format : Matroska
Format version : Version 4 / Version 2
File size : 3.17 GiB
Duration : 2h 0mn
Overall bit rate : 3 760 Kbps
Movie name : 2003 61e Grand Prix de Monaco round 7 ru
Encoded date : UTC 2013-06-28 18:24:50
Writing application : mkvmerge v6.2.0 ('Promised Land') built on Apr 28 2013 12:22:01
Writing library : libebml v1.3.0 + libmatroska v1.4.0
Video
ID : 1
Format : AVC
Format/Info : Advanced Video Codec
Format profile : [email protected]
Format settings, CABAC : Yes
Format settings, ReFrames : 5 frames
Codec ID : V_MPEG4/ISO/AVC
Duration : 2h 0mn
Bit rate : 3 500 Kbps
Width : 720 pixels
Height : 576 pixels
Display aspect ratio : 5:4
Original display aspect ratio : 4:3
Frame rate mode : Constant
Frame rate : 50.000 fps
Standard : PAL
Color space : YUV
Chroma subsampling : 4:2:0
Bit depth : 8 bits
Scan type : Progressive
Bits/(Pixel*Frame) : 0.169
Stream size : 2.89 GiB (91%)
Writing library : x264 core 114 r1913 5fd3dce
Encoding settings : cabac=1 / ref=5 / deblock=1:-2:-1 / analyse=0x3:0x113 / me=hex / subme=7 / psy=1 / psy_rd=1.00:0.00 / mixed_ref=1 / me_range=16 / chroma_me=1 / trellis=2 / 8x8dct=1 / cqm=0 / deadzone=21,11 / fast_pskip=1 / chroma_qp_offset=-2 / threads=6 / sliced_threads=0 / nr=0 / decimate=1 / interlaced=0 / constrained_intra=0 / bframes=4 / b_pyramid=2 / b_adapt=2 / b_bias=0 / direct=3 / weightb=1 / open_gop=0 / weightp=2 / keyint=250 / keyint_min=25 / scenecut=40 / intra_refresh=0 / rc_lookahead=60 / rc=2pass / mbtree=1 / bitrate=3500 / ratetol=2.0 / qcomp=0.60 / qpmin=10 / qpmax=51 / qpstep=4 / cplxblur=20.0 / qblur=0.5 / ip_ratio=1.40 / aq=1:1.00
Language : English
Default : Yes
Forced : No
Audio
ID : 2
Format : AC-3
Format/Info : Audio Coding 3
Mode extension : CM (complete main)
Format settings, Endianness : Big
Codec ID : A_AC3
Duration : 2h 0mn
Bit rate mode : Constant
Bit rate : 256 Kbps
Channel(s) : 2 channels
Channel positions : Front: L R
Sampling rate : 48.0 KHz
Bit depth : 16 bits
Compression mode : Lossy
Stream size : 221 MiB (7%)
Language : Russian
Default : Yes
Forced : No
-

Этап 8. 15.06.2003. Гран При Канады, Монреаль

-File size: 3250.56 MBytes
Duration: 02:00:57.984
Overall bitrate: 3757 Kbps
Video: 720x576 (5:4), 50.000 fps, AVC, ~3500 Kbps, 0.169 bits/pixel
Audio: Russian, 48.0 KHz, AC3, 2 ch, 256 Kbps-

Media Info


General
Unique ID : 252431467225831276465928958127492786139 (0xBDE8883BDF62A5158D5250F4188F67DB)
Format : Matroska
Format version : Version 4 / Version 2
File size : 3.17 GiB
Duration : 2h 0mn
Overall bit rate : 3 757 Kbps
Movie name : 2003 Grand Prix Air Canada round 8 ru
Encoded date : UTC 2013-07-13 05:58:19
Writing application : mkvmerge v6.3.0 ('You can't stop me!') built on Jul 3 2013 19:24:42
Writing library : libebml v1.3.0 + libmatroska v1.4.1
Video
ID : 1
Format : AVC
Format/Info : Advanced Video Codec
Format profile : [email protected]
Format settings, CABAC : Yes
Format settings, ReFrames : 5 frames
Codec ID : V_MPEG4/ISO/AVC
Duration : 2h 0mn
Bit rate : 3 500 Kbps
Width : 720 pixels
Height : 576 pixels
Display aspect ratio : 5:4
Original display aspect ratio : 4:3
Frame rate mode : Constant
Frame rate : 50.000 fps
Standard : PAL
Color space : YUV
Chroma subsampling : 4:2:0
Bit depth : 8 bits
Scan type : Progressive
Bits/(Pixel*Frame) : 0.169
Stream size : 2.89 GiB (91%)
Writing library : x264 core 114 r1913 5fd3dce
Encoding settings : cabac=1 / ref=5 / deblock=1:-2:-1 / analyse=0x3:0x113 / me=hex / subme=7 / psy=1 / psy_rd=1.00:0.00 / mixed_ref=1 / me_range=16 / chroma_me=1 / trellis=2 / 8x8dct=1 / cqm=0 / deadzone=21,11 / fast_pskip=1 / chroma_qp_offset=-2 / threads=6 / sliced_threads=0 / nr=0 / decimate=1 / interlaced=0 / constrained_intra=0 / bframes=4 / b_pyramid=2 / b_adapt=2 / b_bias=0 / direct=3 / weightb=1 / open_gop=0 / weightp=2 / keyint=250 / keyint_min=25 / scenecut=40 / intra_refresh=0 / rc_lookahead=60 / rc=2pass / mbtree=1 / bitrate=3500 / ratetol=2.0 / qcomp=0.60 / qpmin=10 / qpmax=51 / qpstep=4 / cplxblur=20.0 / qblur=0.5 / ip_ratio=1.40 / aq=1:1.00
Language : English
Default : Yes
Forced : No
Audio
ID : 2
Format : AC-3
Format/Info : Audio Coding 3
Mode extension : CM (complete main)
Format settings, Endianness : Big
Codec ID : A_AC3
Duration : 2h 0mn
Bit rate mode : Constant
Bit rate : 256 Kbps
Channel(s) : 2 channels
Channel positions : Front: L R
Sampling rate : 48.0 KHz
Bit depth : 16 bits
Compression mode : Lossy
Stream size : 221 MiB (7%)
Language : Russian
Default : Yes
Forced : No
-

Этап 9. 29.06.2003. Гран При Европы, Нюрбургринг

-File size: 3159.90 MBytes
Duration: 01:57:29.296
Overall bitrate: 3760 Kbps
Video: 544x576 (4:3) @ 768x576, 50.000 fps, AVC, ~3429 Kbps, 0.219 bits/pixel
Audio: Russian, 48.0 KHz, AC3, 2 ch, 256 Kbps-

Media Info


General
Unique ID : 199221378234564426282577590681342843756 (0x95E0A44C603D6AD292B4ACFC396C1B6C)
Format : Matroska
Format version : Version 4 / Version 2
File size : 3.09 GiB
Duration : 1h 57mn
Overall bit rate : 3 760 Kbps
Movie name : 2003 Allianz Grand Prix of Europe round 9 ru
Encoded date : UTC 2014-08-10 15:31:45
Writing application : mkvmerge v7.1.0 ('Good Love') 64bit built on Jul 27 2014 13:06:55
Writing library : libebml v1.3.0 + libmatroska v1.4.1
DURATION : 01:57:29.280000000
NUMBER_OF_FRAMES : 220290
NUMBER_OF_BYTES : 225576960
_STATISTICS_WRITING_APP : mkvmerge v7.1.0 ('Good Love') 64bit built on Jul 27 2014 13:06:55
_STATISTICS_WRITING_DATE_UTC : 2014-08-10 15:31:45
_STATISTICS_TAGS : BPS DURATION NUMBER_OF_FRAMES NUMBER_OF_BYTES
Video
ID : 1
Format : AVC
Format/Info : Advanced Video Codec
Format profile : [email protected]
Format settings, CABAC : Yes
Format settings, ReFrames : 5 frames
Codec ID : V_MPEG4/ISO/AVC
Duration : 1h 57mn
Bit rate : 3 429 Kbps
Width : 544 pixels
Height : 576 pixels
Display aspect ratio : 4:3
Frame rate mode : Constant
Frame rate : 50.000 fps
Color space : YUV
Chroma subsampling : 4:2:0
Bit depth : 8 bits
Scan type : Progressive
Bits/(Pixel*Frame) : 0.219
Stream size : 2.81 GiB (91%)
Language : English
Default : Yes
Forced : No
DURATION : 01:57:29.280000000
NUMBER_OF_FRAMES : 352464
NUMBER_OF_BYTES : 3085005004
_STATISTICS_WRITING_APP : mkvmerge v7.1.0 ('Good Love') 64bit built on Jul 27 2014 13:06:55
_STATISTICS_WRITING_DATE_UTC : 2014-08-10 15:31:45
_STATISTICS_TAGS : BPS DURATION NUMBER_OF_FRAMES NUMBER_OF_BYTES
Audio
ID : 2
Format : AC-3
Format/Info : Audio Coding 3
Mode extension : CM (complete main)
Format settings, Endianness : Big
Codec ID : A_AC3
Duration : 1h 57mn
Bit rate mode : Constant
Bit rate : 256 Kbps
Channel(s) : 2 channels
Channel positions : Front: L R
Sampling rate : 48.0 KHz
Bit depth : 16 bits
Compression mode : Lossy
Delay relative to video : 16ms
Stream size : 215 MiB (7%)
Language : Russian
Default : Yes
Forced : No
-

Этап 10. 06.07.2003. Гран При Франции, Маньи-Кур

-File size: 3326.10 MBytes
Duration: 02:03:56.780
Overall bitrate: 3752 Kbps
Video: 700x560 (5:4), 50.000 fps, AVC, ~3500 Kbps, 0.179 bits/pixel
Audio: Russian, 48.0 KHz, AC3, 2 ch, 256 Kbps-

Media Info


General
Unique ID : 173298064053297276910878018854003599468 (0x825FFE3AEA04447E8FE863BFC5F2E86C)
Format : Matroska
Format version : Version 4 / Version 2
File size : 3.25 GiB
Duration : 2h 3mn
Overall bit rate : 3 752 Kbps
Movie name : 2003 89e Mobil 1 Grand Prix de France round 10 ru
Encoded date : UTC 2013-07-14 03:49:48
Writing application : mkvmerge v6.3.0 ('You can't stop me!') built on Jul 3 2013 19:24:42
Writing library : libebml v1.3.0 + libmatroska v1.4.1
Video
ID : 1
Format : AVC
Format/Info : Advanced Video Codec
Format profile : [email protected]
Format settings, CABAC : Yes
Format settings, ReFrames : 5 frames
Codec ID : V_MPEG4/ISO/AVC
Duration : 2h 3mn
Bit rate : 3 500 Kbps
Width : 700 pixels
Height : 560 pixels
Display aspect ratio : 5:4
Original display aspect ratio : 4:3
Frame rate mode : Constant
Frame rate : 50.000 fps
Color space : YUV
Chroma subsampling : 4:2:0
Bit depth : 8 bits
Scan type : Progressive
Bits/(Pixel*Frame) : 0.179
Stream size : 2.96 GiB (91%)
Writing library : x264 core 116 r2044 392e762
Encoding settings : cabac=1 / ref=5 / deblock=1:-2:-1 / analyse=0x3:0x133 / me=hex / subme=7 / psy=1 / psy_rd=1.00:0.00 / mixed_ref=1 / me_range=16 / chroma_me=1 / trellis=1 / 8x8dct=1 / cqm=0 / deadzone=21,11 / fast_pskip=1 / chroma_qp_offset=-2 / threads=6 / sliced_threads=0 / nr=0 / decimate=1 / interlaced=0 / bluray_compat=0 / constrained_intra=0 / bframes=5 / b_pyramid=2 / b_adapt=2 / b_bias=0 / direct=3 / weightb=1 / open_gop=0 / weightp=2 / keyint=250 / keyint_min=25 / scenecut=40 / intra_refresh=0 / rc_lookahead=60 / rc=2pass / mbtree=1 / bitrate=3500 / ratetol=4.0 / qcomp=0.60 / qpmin=10 / qpmax=51 / qpstep=4 / cplxblur=20.0 / qblur=0.5 / ip_ratio=1.40 / aq=1:1.00
Language : English
Default : Yes
Forced : No
Audio
ID : 2
Format : AC-3
Format/Info : Audio Coding 3
Mode extension : CM (complete main)
Format settings, Endianness : Big
Codec ID : A_AC3
Duration : 2h 3mn
Bit rate mode : Constant
Bit rate : 256 Kbps
Channel(s) : 2 channels
Channel positions : Front: L R
Sampling rate : 48.0 KHz
Bit depth : 16 bits
Compression mode : Lossy
Delay relative to video : 12ms
Stream size : 227 MiB (7%)
Language : Russian
Default : Yes
Forced : No
-

Этап 11. 20.07.2003. Гран При Великобритании, Силверстоун

-File size: 3169.70 MBytes
Duration: 01:57:57.304
Overall bitrate: 3757 Kbps
Video: 720x576 (5:4), 25.000 fps, AVC, ~3500 Kbps, 0.338 bits/pixel
Audio: Russian, 48.0 KHz, AC3, 2 ch, 256 Kbps-

Media Info


General
Unique ID : 187987198195985722959860737045817330433 (0x8D6D04756BEAE3AEBE35D6F704D20B01)
Format : Matroska
Format version : Version 4 / Version 2
File size : 3.10 GiB
Duration : 1h 57mn
Overall bit rate : 3 757 Kbps
Movie name : 2003 Foster's British Grand Prix round 11 ru
Encoded date : UTC 2013-07-25 13:46:57
Writing application : mkvmerge v6.3.0 ('You can't stop me!') built on Jul 19 2013 16:27:38
Writing library : libebml v1.3.0 + libmatroska v1.4.1
Video
ID : 1
Format : AVC
Format/Info : Advanced Video Codec
Format profile : [email protected]
Format settings, CABAC : Yes
Format settings, ReFrames : 5 frames
Codec ID : V_MPEG4/ISO/AVC
Duration : 1h 57mn
Bit rate : 3 500 Kbps
Width : 720 pixels
Height : 576 pixels
Display aspect ratio : 5:4
Original display aspect ratio : 4:3
Frame rate mode : Constant
Frame rate : 25.000 fps
Standard : PAL
Color space : YUV
Chroma subsampling : 4:2:0
Bit depth : 8 bits
Scan type : Progressive
Bits/(Pixel*Frame) : 0.338
Stream size : 2.82 GiB (91%)
Writing library : x264 core 114 r1913 5fd3dce
Encoding settings : cabac=1 / ref=5 / deblock=1:-2:-1 / analyse=0x3:0x113 / me=hex / subme=7 / psy=1 / psy_rd=1.00:0.00 / mixed_ref=1 / me_range=16 / chroma_me=1 / trellis=2 / 8x8dct=1 / cqm=0 / deadzone=21,11 / fast_pskip=1 / chroma_qp_offset=-2 / threads=6 / sliced_threads=0 / nr=0 / decimate=1 / interlaced=0 / constrained_intra=0 / bframes=4 / b_pyramid=2 / b_adapt=2 / b_bias=0 / direct=3 / weightb=1 / open_gop=0 / weightp=2 / keyint=250 / keyint_min=25 / scenecut=40 / intra_refresh=0 / rc_lookahead=60 / rc=2pass / mbtree=1 / bitrate=3500 / ratetol=2.0 / qcomp=0.60 / qpmin=10 / qpmax=51 / qpstep=4 / cplxblur=20.0 / qblur=0.5 / ip_ratio=1.40 / aq=1:1.00
Language : English
Default : Yes
Forced : No
Audio
ID : 2
Format : AC-3
Format/Info : Audio Coding 3
Mode extension : CM (complete main)
Format settings, Endianness : Big
Codec ID : A_AC3
Duration : 1h 57mn
Bit rate mode : Constant
Bit rate : 256 Kbps
Channel(s) : 2 channels
Channel positions : Front: L R
Sampling rate : 48.0 KHz
Bit depth : 16 bits
Compression mode : Lossy
Delay relative to video : 24ms
Stream size : 216 MiB (7%)
Language : Russian
Default : Yes
Forced : No
-

Этап 12. 03.08.2003. Гран При Германии, Хокенхайм

-File size: 2880.14 MBytes
Duration: 02:03:59.280
Overall bitrate: 3248 Kbps
Video: 704x576 (5:4) @ 720x576, 50.000 fps, AVC, ~2991 Kbps, 0.148 bits/pixel
Audio: Russian, 48.0 KHz, AC3, 2 ch, 192 Kbps-

Media Info


General
Unique ID : 174319922197079074667954615582152030769 (0x8324CBB9F587FEAEA9C3134BA2057A31)
Format : Matroska
Format version : Version 4 / Version 2
File size : 2.81 GiB
Duration : 2h 3mn
Overall bit rate : 3 248 Kbps
Movie name : 2003 Grosser Mobil 1 Preis von Deutschland round 12 ru
Encoded date : UTC 2013-07-27 05:15:02
Writing application : mkvmerge v6.3.0 ('You can't stop me!') built on Jul 19 2013 16:27:38
Writing library : libebml v1.3.0 + libmatroska v1.4.1
Video
ID : 1
Format : AVC
Format/Info : Advanced Video Codec
Format profile : [email protected]
Format settings, CABAC : Yes
Format settings, ReFrames : 5 frames
Codec ID : V_MPEG4/ISO/AVC
Duration : 2h 3mn
Bit rate : 2 991 Kbps
Width : 704 pixels
Height : 576 pixels
Display aspect ratio : 5:4
Original display aspect ratio : 4:3
Frame rate mode : Constant
Frame rate : 50.000 fps
Standard : PAL
Color space : YUV
Chroma subsampling : 4:2:0
Bit depth : 8 bits
Scan type : Progressive
Bits/(Pixel*Frame) : 0.148
Stream size : 2.59 GiB (92%)
Language : English
Default : Yes
Forced : No
Audio
ID : 2
Format : AC-3
Format/Info : Audio Coding 3
Mode extension : CM (complete main)
Format settings, Endianness : Big
Codec ID : A_AC3
Duration : 2h 3mn
Bit rate mode : Constant
Bit rate : 192 Kbps
Channel(s) : 2 channels
Channel positions : Front: L R
Sampling rate : 48.0 KHz
Bit depth : 16 bits
Compression mode : Lossy
Delay relative to video : 16ms
Stream size : 170 MiB (6%)
Language : Russian
Default : Yes
Forced : No
-

Этап 13. 24.08.2003. Гран При Венгрии, Хунгароринг

-File size: 3330.36 MBytes
Duration: 02:03:56.864
Overall bitrate: 3757 Kbps
Video: 720x576 (5:4), 50.000 fps, AVC, ~3500 Kbps, 0.169 bits/pixel
Audio: Russian, 48.0 KHz, AC3, 2 ch, 256 Kbps-

Media Info


General
Unique ID : 185950875194577555778217324008072674214 (0x8BE4D5FBB8DE4306961F1C117A1DFBA6)
Format : Matroska
Format version : Version 4 / Version 2
File size : 3.25 GiB
Duration : 2h 3mn
Overall bit rate : 3 757 Kbps
Movie name : 2003 Marlboro Magyar Nagydij round 13 ru
Encoded date : UTC 2013-07-27 08:28:04
Writing application : mkvmerge v6.3.0 ('You can't stop me!') built on Jul 19 2013 16:27:38
Writing library : libebml v1.3.0 + libmatroska v1.4.1
Video
ID : 1
Format : AVC
Format/Info : Advanced Video Codec
Format profile : [email protected]
Format settings, CABAC : Yes
Format settings, ReFrames : 5 frames
Codec ID : V_MPEG4/ISO/AVC
Duration : 2h 3mn
Bit rate : 3 500 Kbps
Width : 720 pixels
Height : 576 pixels
Display aspect ratio : 5:4
Original display aspect ratio : 4:3
Frame rate mode : Constant
Frame rate : 50.000 fps
Standard : PAL
Color space : YUV
Chroma subsampling : 4:2:0
Bit depth : 8 bits
Scan type : Progressive
Bits/(Pixel*Frame) : 0.169
Stream size : 2.97 GiB (91%)
Writing library : x264 core 114 r1913 5fd3dce
Encoding settings : cabac=1 / ref=5 / deblock=1:-2:-1 / analyse=0x3:0x113 / me=hex / subme=7 / psy=1 / psy_rd=1.00:0.00 / mixed_ref=1 / me_range=16 / chroma_me=1 / trellis=2 / 8x8dct=1 / cqm=0 / deadzone=21,11 / fast_pskip=1 / chroma_qp_offset=-2 / threads=6 / sliced_threads=0 / nr=0 / decimate=1 / interlaced=0 / constrained_intra=0 / bframes=4 / b_pyramid=2 / b_adapt=2 / b_bias=0 / direct=3 / weightb=1 / open_gop=0 / weightp=2 / keyint=250 / keyint_min=25 / scenecut=40 / intra_refresh=0 / rc_lookahead=60 / rc=2pass / mbtree=1 / bitrate=3500 / ratetol=2.0 / qcomp=0.60 / qpmin=10 / qpmax=51 / qpstep=4 / cplxblur=20.0 / qblur=0.5 / ip_ratio=1.40 / aq=1:1.00
Language : English
Default : Yes
Forced : No
Audio
ID : 2
Format : AC-3
Format/Info : Audio Coding 3
Mode extension : CM (complete main)
Format settings, Endianness : Big
Codec ID : A_AC3
Duration : 2h 3mn
Bit rate mode : Constant
Bit rate : 256 Kbps
Channel(s) : 2 channels
Channel positions : Front: L R
Sampling rate : 48.0 KHz
Bit depth : 16 bits
Compression mode : Lossy
Stream size : 227 MiB (7%)
Language : Russian
Default : Yes
Forced : No
-

Этап 14. 14.09.2003. Гран При Италии, Монца

-File size: 3032.93 MBytes
Duration: 01:52:47.904
Overall bitrate: 3759 Kbps
Video: 720x576 (5:4), 50.000 fps, AVC, ~3500 Kbps, 0.169 bits/pixel
Audio: Russian, 48.0 KHz, AC3, 2 ch, 256 Kbps-

Media Info


General
Unique ID : 237432035850857274111274604568232189976 (0xB29FBF2BAD288C25B8F9088543C9E018)
Format : Matroska
Format version : Version 4 / Version 2
File size : 2.96 GiB
Duration : 1h 52mn
Overall bit rate : 3 759 Kbps
Movie name : 2003 74° Gran Premio Vodafone d'Italia round 14 ru
Encoded date : UTC 2013-07-26 15:39:04
Writing application : mkvmerge v6.3.0 ('You can't stop me!') built on Jul 19 2013 16:27:38
Writing library : libebml v1.3.0 + libmatroska v1.4.1
Video
ID : 1
Format : AVC
Format/Info : Advanced Video Codec
Format profile : [email protected]
Format settings, CABAC : Yes
Format settings, ReFrames : 5 frames
Codec ID : V_MPEG4/ISO/AVC
Duration : 1h 52mn
Bit rate : 3 500 Kbps
Width : 720 pixels
Height : 576 pixels
Display aspect ratio : 5:4
Original display aspect ratio : 4:3
Frame rate mode : Constant
Frame rate : 50.000 fps
Standard : PAL
Color space : YUV
Chroma subsampling : 4:2:0
Bit depth : 8 bits
Scan type : Progressive
Bits/(Pixel*Frame) : 0.169
Stream size : 2.70 GiB (91%)
Writing library : x264 core 114 r1913 5fd3dce
Encoding settings : cabac=1 / ref=5 / deblock=1:-2:-1 / analyse=0x3:0x113 / me=hex / subme=7 / psy=1 / psy_rd=1.00:0.00 / mixed_ref=1 / me_range=16 / chroma_me=1 / trellis=2 / 8x8dct=1 / cqm=0 / deadzone=21,11 / fast_pskip=1 / chroma_qp_offset=-2 / threads=6 / sliced_threads=0 / nr=0 / decimate=1 / interlaced=0 / constrained_intra=0 / bframes=4 / b_pyramid=2 / b_adapt=2 / b_bias=0 / direct=3 / weightb=1 / open_gop=0 / weightp=2 / keyint=250 / keyint_min=25 / scenecut=40 / intra_refresh=0 / rc_lookahead=60 / rc=2pass / mbtree=1 / bitrate=3500 / ratetol=2.0 / qcomp=0.60 / qpmin=10 / qpmax=51 / qpstep=4 / cplxblur=20.0 / qblur=0.5 / ip_ratio=1.40 / aq=1:1.00
Language : English
Default : Yes
Forced : No
Audio
ID : 2
Format : AC-3
Format/Info : Audio Coding 3
Mode extension : CM (complete main)
Format settings, Endianness : Big
Codec ID : A_AC3
Duration : 1h 52mn
Bit rate mode : Constant
Bit rate : 256 Kbps
Channel(s) : 2 channels
Channel positions : Front: L R
Sampling rate : 48.0 KHz
Bit depth : 16 bits
Compression mode : Lossy
Stream size : 207 MiB (7%)
Language : Russian
Default : Yes
Forced : No
-

Этап 15. 28.09.2003. Гран При США, Индианаполис

-File size: 3424.74 MBytes
Duration: 02:07:25.160
Overall bitrate: 3758 Kbps
Video: 720x576 (5:4), 50.000 fps, AVC, ~3500 Kbps, 0.169 bits/pixel
Audio: Russian, 48.0 KHz, AC3, 2 ch, 256 Kbps-

Media Info


General
Unique ID : 214534486802061620904365654344653863701 (0xA165D6D75B56C34A9D0832AE5D4BFB15)
Format : Matroska
Format version : Version 4 / Version 2
File size : 3.34 GiB
Duration : 2h 7mn
Overall bit rate : 3 758 Kbps
Movie name : 2003 United States Grand Prix round 15 ru
Encoded date : UTC 2013-07-26 15:44:56
Writing application : mkvmerge v6.3.0 ('You can't stop me!') built on Jul 19 2013 16:27:38
Writing library : libebml v1.3.0 + libmatroska v1.4.1
Video
ID : 1
Format : AVC
Format/Info : Advanced Video Codec
Format profile : [email protected]
Format settings, CABAC : Yes
Format settings, ReFrames : 5 frames
Codec ID : V_MPEG4/ISO/AVC
Duration : 2h 7mn
Bit rate : 3 500 Kbps
Width : 720 pixels
Height : 576 pixels
Display aspect ratio : 5:4
Original display aspect ratio : 4:3
Frame rate mode : Constant
Frame rate : 50.000 fps
Standard : PAL
Color space : YUV
Chroma subsampling : 4:2:0
Bit depth : 8 bits
Scan type : Progressive
Bits/(Pixel*Frame) : 0.169
Stream size : 3.05 GiB (91%)
Writing library : x264 core 114 r1913 5fd3dce
Encoding settings : cabac=1 / ref=5 / deblock=1:-2:-1 / analyse=0x3:0x113 / me=hex / subme=7 / psy=1 / psy_rd=1.00:0.00 / mixed_ref=1 / me_range=16 / chroma_me=1 / trellis=2 / 8x8dct=1 / cqm=0 / deadzone=21,11 / fast_pskip=1 / chroma_qp_offset=-2 / threads=6 / sliced_threads=0 / nr=0 / decimate=1 / interlaced=0 / constrained_intra=0 / bframes=4 / b_pyramid=2 / b_adapt=2 / b_bias=0 / direct=3 / weightb=1 / open_gop=0 / weightp=2 / keyint=250 / keyint_min=25 / scenecut=40 / intra_refresh=0 / rc_lookahead=60 / rc=2pass / mbtree=1 / bitrate=3500 / ratetol=2.0 / qcomp=0.60 / qpmin=10 / qpmax=51 / qpstep=4 / cplxblur=20.0 / qblur=0.5 / ip_ratio=1.40 / aq=1:1.00
Language : English
Default : Yes
Forced : No
Audio
ID : 2
Format : AC-3
Format/Info : Audio Coding 3
Mode extension : CM (complete main)
Format settings, Endianness : Big
Codec ID : A_AC3
Duration : 2h 7mn
Bit rate mode : Constant
Bit rate : 256 Kbps
Channel(s) : 2 channels
Channel positions : Front: L R
Sampling rate : 48.0 KHz
Bit depth : 16 bits
Compression mode : Lossy
Delay relative to video : 8ms
Stream size : 233 MiB (7%)
Language : Russian
Default : Yes
Forced : No
-

Этап 16. 12.10.2003. Гран При Японии, Судзука

-File size: 3080.83 MBytes
Duration: 01:54:33.680
Overall bitrate: 3760 Kbps
Video: 720x576 (5:4), 50.000 fps, AVC, ~3500 Kbps, 0.169 bits/pixel
Audio: Russian, 48.0 KHz, AC3, 2 ch, 256 Kbps-

Media Info


General
Unique ID : 232261671978610604420704288493336635880 (0xAEBBF88CE21180CA89BBA7D6CC49A9E8)
Complete name : E:\Distributed files (uTorrent)\2003 full ru\2003 Fuji Television Japanese Grand Prix round 16 ru.mkv
Format : Matroska
Format version : Version 4 / Version 2
File size : 3.01 GiB
Duration : 1h 54mn
Overall bit rate : 3 760 Kbps
Movie name : 2003 Fuji Television Japanese Grand Prix round 16 ru
Encoded date : UTC 2013-07-20 09:05:10
Writing application : mkvmerge v6.3.0 ('You can't stop me!') built on Jul 3 2013 19:24:42
Writing library : libebml v1.3.0 + libmatroska v1.4.1
Video
ID : 1
Format : AVC
Format/Info : Advanced Video Codec
Format profile : [email protected]
Format settings, CABAC : Yes
Format settings, ReFrames : 5 frames
Codec ID : V_MPEG4/ISO/AVC
Duration : 1h 54mn
Bit rate : 3 500 Kbps
Width : 720 pixels
Height : 576 pixels
Display aspect ratio : 5:4
Original display aspect ratio : 4:3
Frame rate mode : Constant
Frame rate : 50.000 fps
Standard : PAL
Color space : YUV
Chroma subsampling : 4:2:0
Bit depth : 8 bits
Scan type : Progressive
Bits/(Pixel*Frame) : 0.169
Stream size : 2.74 GiB (91%)
Writing library : x264 core 114 r1913 5fd3dce
Encoding settings : cabac=1 / ref=5 / deblock=1:-2:-1 / analyse=0x3:0x113 / me=hex / subme=7 / psy=1 / psy_rd=1.00:0.00 / mixed_ref=1 / me_range=16 / chroma_me=1 / trellis=2 / 8x8dct=1 / cqm=0 / deadzone=21,11 / fast_pskip=1 / chroma_qp_offset=-2 / threads=6 / sliced_threads=0 / nr=0 / decimate=1 / interlaced=0 / constrained_intra=0 / bframes=4 / b_pyramid=2 / b_adapt=2 / b_bias=0 / direct=3 / weightb=1 / open_gop=0 / weightp=2 / keyint=250 / keyint_min=25 / scenecut=40 / intra_refresh=0 / rc_lookahead=60 / rc=2pass / mbtree=1 / bitrate=3500 / ratetol=2.0 / qcomp=0.60 / qpmin=10 / qpmax=51 / qpstep=4 / cplxblur=20.0 / qblur=0.5 / ip_ratio=1.40 / aq=1:1.00
Language : English
Default : Yes
Forced : No
Audio
ID : 2
Format : AC-3
Format/Info : Audio Coding 3
Mode extension : CM (complete main)
Format settings, Endianness : Big
Codec ID : A_AC3
Duration : 1h 54mn
Bit rate mode : Constant
Bit rate : 256 Kbps
Channel(s) : 2 channels
Channel positions : Front: L R
Sampling rate : 48.0 KHz
Bit depth : 16 bits
Compression mode : Lossy
Stream size : 210 MiB (7%)
Language : Russian
Default : Yes
Forced : No
-

Скриншоты





-

Создавать темы 01-Сен-2014 11:50

[Профиль]  [ЛС] 

Erjan

Стаж: 5 лет 8 месяцев

Сообщений: 24

Симпатии: 4

ну и раздача +++. и размер ничё проста 2003 год а так супер

Создавать темы 06-Сен-2014 09:39

[Профиль]  [ЛС] 

ganimed

Стаж: 4 года 8 месяцев

Сообщений: 17

Симпатии: 1

красавчик жду 2004 с его рекордами

Создавать темы 19-Сен-2014 00:22

[Профиль]  [ЛС] 
Показать сообщения:    
Ответить на тему

Текущее время: 21-Сен 19:02

Часовой пояс: UTC + 5



Вы не можете начинать темы
Вы не можете отвечать на сообщения
Вы не можете редактировать свои сообщения
Вы не можете удалять свои сообщения
Вы не можете голосовать в опросах
Вы не можете прикреплять файлы к сообщениям
Вы не можете скачивать файлы