Селфи / Selfie / Cезон: 1 / Cерия: 1-13 из 13 / (Джули Энн Робинсон) [2014,.. комедия, WEB-DL 720p ] GladiolusTV + Original

Страницы :  1, 2, 3  След.

Ответить на тему
 

Zab ®

Стаж: 6 лет 7 месяцев

Сообщений: 476

Симпатии: 424

Селфи / Selfie
-Год выпуска: 2014
Страна: США
Жанр: комедия
Продолжительность: 00:26:10
Перевод: Профессиональный (многоголосый закадровый) [GladiolusTV]-Режиссёр: Джули Энн Робинсон
В главных ролях: Карен Гиллан, Джон Чо, Дэвид Хэрвуд, Эллин Рэйчел, Da'Vine Joy Randolph, Мэттью Кардаропле, Дженнифер Хэсти, Тим Пепер, Блейк Худ, Джиллиан Вигмэн-Краткое описание: Элиза Дули — звезда инстаграма, у нее 263,000 подписчиков, которые следят за каждым ее постом, твитом или селфи. Но однажды на нее снисходит озарение: быть друзьями в социальных сетях — это совсем не то же самое, что иметь настоящих друзей. Она просит гуру маркетинга Генри научить ее общаться с людьми в реальном мире.- -Качество: WEB-DL 720p
Формат: MKV
Видео кодек: MPEG-4 AVC
Аудио кодек: MP3
Видео: MPEG-4 AVC, 1280x720, 3500 kb/s, 29.97fps
Аудио 1: [rus] (mp3, 48000 Hz, stereo, 224 kb/s) GladiolusTV
Аудио 2: [eng] (mp3, 48000 Hz, stereo, 224 kb/s) Original
Субтитры: Внешние (Язык-английский, формат .SRT)

Скриншоты

MI

General
Complete name : D:\[Movies]\Selfie.S01.Gladiolus.720p\Selfie.S01E01.Gladiolus.720p.mkv
Format : AVI
Format/Info : Audio Video Interleave
File size : 611 MiB
Duration : 26mn 12s
Overall bit rate : 3 257 Kbps
Writing application : VirtualDubModRus 1.5.10.2 (build 2542/release)
Writing library : VirtualDubMod build 2542/release
Video
ID : 0
Format : MPEG-4 Visual
Format profile : Advanced [email protected]
Format settings, BVOP : 2
Format settings, QPel : No
Format settings, GMC : No warppoints
Format settings, Matrix : Default (H.263)
Codec ID : DX50
Codec ID/Hint : DivX 5
Duration : 26mn 12s
Bit rate : 2 658 Kbps
Width : 1 280 pixels
Height : 720 pixels
Display aspect ratio : 16:9
Frame rate : 29.970 fps
Color space : YUV
Chroma subsampling : 4:2:0
Bit depth : 8 bits
Scan type : Progressive
Compression mode : Lossy
Bits/(Pixel*Frame) : 0.096
Stream size : 498 MiB (82%)
Writing library : XviD 1.2.1 (UTC 2008-12-04)
Audio #1
ID : 1
Format : AC-3
Format/Info : Audio Coding 3
Mode extension : CM (complete main)
Format settings, Endianness : Big
Codec ID : 2000
Duration : 26mn 12s
Bit rate mode : Constant
Bit rate : 192 Kbps
Channel(s) : 2 channels
Channel positions : Front: L R
Sampling rate : 48.0 KHz
Bit depth : 16 bits
Compression mode : Lossy
Stream size : 36.0 MiB (6%)
Alignment : Split accross interleaves
Interleave, duration : 33 ms (1.00 video frame)
Interleave, preload duration : 500 ms
Audio #2
ID : 2
Format : AC-3
Format/Info : Audio Coding 3
Mode extension : CM (complete main)
Format settings, Endianness : Big
Codec ID : 2000
Duration : 26mn 10s
Bit rate mode : Constant
Bit rate : 192 Kbps
Channel(s) : 2 channels
Channel positions : Front: L R
Sampling rate : 48.0 KHz
Bit depth : 16 bits
Compression mode : Lossy
Stream size : 35.9 MiB (6%)
Alignment : Split accross interleaves
Interleave, duration : 33 ms (1.00 video frame)
Interleave, preload duration : 500 ms
Audio #3
ID : 3
Format : AC-3
Format/Info : Audio Coding 3
Mode extension : CM (complete main)
Format settings, Endianness : Big
Codec ID : 2000
Duration : 26mn 12s
Bit rate mode : Constant
Bit rate : 192 Kbps
Channel(s) : 2 channels
Channel positions : Front: L R
Sampling rate : 48.0 KHz
Bit depth : 16 bits
Compression mode : Lossy
Stream size : 36.0 MiB (6%)
Alignment : Split accross interleaves
Interleave, duration : 33 ms (1.00 video frame)
Interleave, preload duration : 500 ms


Последний раз редактировалось: Zab (2015-03-05 16:01), всего редактировалось 23 раз(а)

Создавать темы 02-Сен-2014 15:37

[Профиль]  [ЛС] 

scorch

Стаж: 5 лет 10 месяцев

Сообщений: 25

Симпатии: 2

Ух ты, на 3 скрине чуваки из американского пирога )))

Создавать темы 02-Сен-2014 20:20

[Профиль]  [ЛС] 

Sick Spiny

Стаж: 4 года 10 месяцев

Сообщений: 11

Какой-то совсем нереалистичный сюжет, грустно было смотреть.

Создавать темы 02-Сен-2014 23:15

[Профиль]  [ЛС] 

mivat

Стаж: 5 лет 2 месяца

Сообщений: 27

Симпатии: 9

веселый сериальчик

Создавать темы 03-Сен-2014 22:50

[Профиль]  [ЛС] 

Zab ®

Стаж: 6 лет 7 месяцев

Сообщений: 476

Симпатии: 424

Торрент файл обновлен,
Добавлена озвучка от Студии Baibako

Создавать темы 05-Сен-2014 06:58

[Профиль]  [ЛС] 

Zab ®

Стаж: 6 лет 7 месяцев

Сообщений: 476

Симпатии: 424

871521веселый сериальчик
Согласен, легкая позитивная комедия, актуальная тема для любителей социальных сетей.. ab

Создавать темы 05-Сен-2014 19:40

[Профиль]  [ЛС] 

[email protected]

Стаж: 6 лет 10 месяцев

Сообщений: 138

Симпатии: 10

Мне понравилось, жду новых серий!

Создавать темы 27-Сен-2014 15:12

[Профиль]  [ЛС] 

[email protected]

Стаж: 6 лет 10 месяцев

Сообщений: 138

Симпатии: 10

Автор а новые серии будут?

Создавать темы 11-Окт-2014 14:23

[Профиль]  [ЛС] 

Zab ®

Стаж: 6 лет 7 месяцев

Сообщений: 476

Симпатии: 424

Добавлена 2 - серия!

Создавать темы 12-Окт-2014 08:27

[Профиль]  [ЛС] 

Zab ®

Стаж: 6 лет 7 месяцев

Сообщений: 476

Симпатии: 424

Пока загрузил от ст.Байбако, чуть позже будет и с Gladiolus в 720p, по мне кажется с ихними озв-ми приятно смотреть...)

Создавать темы 12-Окт-2014 08:27

[Профиль]  [ЛС] 

[email protected]

Стаж: 6 лет 10 месяцев

Сообщений: 138

Симпатии: 10

Огромное спасибо! ;)

Создавать темы 12-Окт-2014 10:47

[Профиль]  [ЛС] 

Zab ®

Стаж: 6 лет 7 месяцев

Сообщений: 476

Симпатии: 424

:cd: Замена 2 - серий на озв. от Gladiolus.TV ! :cc:
P.S: В дальнейшем буду обновлять только от Gladiolus.


Последний раз редактировалось: Zab (2014-10-19 09:53), всего редактировалось 1 раз

Создавать темы 19-Окт-2014 09:52

[Профиль]  [ЛС] 

Zab ®

Стаж: 6 лет 7 месяцев

Сообщений: 476

Симпатии: 424

:cd: добавлена 3 - серия! :cc:

Создавать темы 19-Окт-2014 09:52

[Профиль]  [ЛС] 

tomegatherion

Стаж: 4 года 6 месяцев

Сообщений: 2

подскажите, почему уже недели две ничего не качается с тазика?

Комментарий от saidali


Потому что у вас низкий рейтинг, раздавайте то что скачали

Создавать темы 19-Окт-2014 20:20

[Профиль]  [ЛС] 

Zab ®

Стаж: 6 лет 7 месяцев

Сообщений: 476

Симпатии: 424

:cd: добавлена 4 - серия! :cc:

Создавать темы 25-Окт-2014 08:35

[Профиль]  [ЛС] 
Показать сообщения:    
Ответить на тему

Текущее время: 18-Дек 23:39

Часовой пояс: UTC + 5



Вы не можете начинать темы
Вы не можете отвечать на сообщения
Вы не можете редактировать свои сообщения
Вы не можете удалять свои сообщения
Вы не можете голосовать в опросах
Вы не можете прикреплять файлы к сообщениям
Вы не можете скачивать файлы