Машина / The Machine (Карадог В. Джеймс / Caradog James V.) [2013 г., Австралия, фантастика, триллер, HDRip] MVO

Ответить на тему
 

Suxrob89 ®

Стаж: 7 лет 3 месяца

Сообщений: 933

Симпатии: 564

-Машина / The Machine-«They rise. We fall»- Год выпуска: 2013
Производство: Австралия
Жанр: фантастика, триллер
Перевод: Профессиональный (многоголосый закадровый)
Субтитры: Отсутствуют
Оригинальная дорожка: Отсутствует
Продолжительность: 01:30:28-Режиссер: Карадог В. Джеймс / Caradog James V.-В ролях: Кейти Лотц, Тоби Стивенс, Сэм Хэзелдайн, Дэнис Лосон, Ли Николас Харрис, Бен МакГрегор, Хелен Гриффин, Суле Рими-Описание: Из-за нестабильной обстановки в мире британское министерство обороны нуждается в получении нового оружия. Ведущий ученый Винсент МакКарти предоставляет свое решение этого вопроса, «Машина» — андроид с непревзойденными физическими способностями. Когда программная ошибка заставляет опытный образец разрушать его лабораторию, МакКарти вербует эксперта по искусственному интеллекту Ава, чтобы помочь ему использовать полный потенциал машины-убийцы.- -Качество видео: HDRip
Формат: AVI
Видеокодек: XviD
Аудиокодек: AC3
Видео: 720x400 (1.80:1), 23.976 fps, XviD build 50, 1692 kbps avg, 0.25 bit/pixel
Аудио: 48 kHz, AC3 Dolby Digital, 3/2 (L,C,R,l,r) + LFE ch, 448 kbps

MediaInfo

Общее
Полное имя : D:\Mashina.2013.avi
Формат : AVI
Формат/Информация : Audio Video Interleave
Размер файла : 1,36 Гбайт
Продолжительность : 1 ч. 30 м.
Общий поток : 2150 Кбит/сек
Программа кодирования : VirtualDubMod 1.5.10.2 (build 2540/release)
Библиотека кодирования : VirtualDubMod build 2540/release
Видео
Идентификатор : 0
Формат : MPEG-4 Visual
Профиль формата : Advanced [email protected]
Параметр BVOP формата : 2
Параметр QPel формата : Нет
Параметр GMC формата : Без точки перехода
Параметр матрицы формата : Default (MPEG)
Идентификатор кодека : XVID
Идентификатор кодека/Подсказка : XviD
Продолжительность : 1 ч. 30 м.
Битрейт : 1692 Кбит/сек
Ширина : 720 пикселей
Высота : 400 пикселей
Соотношение сторон : 16:9
Частота кадров : 23,976 кадра/сек
Цветовое пространство : YUV
Субдискретизация насыщенности : 4:2:0
Битовая глубина : 8 бит
Тип развёртки : Прогрессивная
Метод сжатия : С потерями
Бит/(Пиксели*Кадры) : 0.245
Размер потока : 1,07 Гбайт (79%)
Библиотека кодирования : XviD 1.2.1 (UTC 2008-12-04)
Аудио
Идентификатор : 1
Формат : AC-3
Формат/Информация : Audio Coding 3
Расширение режима : CM (complete main)
Параметр Endianness формата : Big
Идентификатор кодека : 2000
Продолжительность : 1 ч. 30 м.
Вид битрейта : Постоянный
Битрейт : 448 Кбит/сек
Каналы : 6 каналов
Расположение каналов : Front: L C R, Side: L R, LFE
Частота : 48,0 КГц
Битовая глубина : 16 бит
Метод сжатия : С потерями
Размер потока : 290 Мбайт (21%)
Выравнивание : Разделение по промежуткам
Продолжительность промежутка : 42 мс. (1,00 видеокадр)
Время предзагрузки промежутка : 500 мс.

Скриншоты

Создавать темы 04-Сен-2014 04:33

[Профиль]  [ЛС] 

jasur2583

Стаж: 4 года 4 месяца

Сообщений: 5

опишите фильм ?

Создавать темы 04-Сен-2014 22:38

[Профиль]  [ЛС] 

IIpu3pak

Стаж: 5 лет 8 месяцев

Сообщений: 258

Симпатии: 53

Постер криповатый, конечно. Даже у ужастиков такие не делают.

Создавать темы 04-Сен-2014 22:59

[Профиль]  [ЛС] 

outoforder

Стаж: 5 лет

Сообщений: 812

Симпатии: 172

871850опишите фильм ?
ТВ-3

Создавать темы 05-Сен-2014 01:11

[Профиль]  [ЛС] 
Показать сообщения:    
Ответить на тему

Текущее время: 19-Ноя 09:40

Часовой пояс: UTC + 5



Вы не можете начинать темы
Вы не можете отвечать на сообщения
Вы не можете редактировать свои сообщения
Вы не можете удалять свои сообщения
Вы не можете голосовать в опросах
Вы не можете прикреплять файлы к сообщениям
Вы не можете скачивать файлы