13-й район: Кирпичные особняки. / Brick Mansions. (Камиль Деламарр.) [2014 г., 6оевик, Драма, Криминал., HDRip][Лицензия]

Страницы :  1, 2, 3  След.

Ответить на тему
 

X3JumperRaZ0R ®

Стаж: 5 лет 5 месяцев

Сообщений: 177

Симпатии: 151

---Слоган: «Undercover and never Outgunned»
Год выпуска: 2014.
Страна: Франция, Канада.
Жанр: 6оевик, Драма, Криминал.
Продолжительность: 01:30:10
Перевод: Профессиональный (полное дублирование) [Лицензия]-Режиссер: Камиль Деламарр.-В ролях: Пол Уокер, Давид Белль, RZA, Гучи Бой, Каталина Денис, Аиша Исса, Карло Рота, Андреас Апергис, Ричард Земан, Роберт Мэйллет...-Описание: История детектива под прикрытием, ищущего оружие массового уничтожения, похищенное наркодилером гетто Кирпичные дома. Детектив обращается за помощью к знатоку района Лино, единственному человеку, который не боится бандитов...--6юджет: $28 000 000
Сборы в США: $20 396 829
Cборы в мире: + $48 500 000 = $68 896 829
Cборы в России: $3 324 855
Премьера (мир): 23 апреля 2014.
Премьера (РФ): 8 мая 2014, «Наше Кино», «A-One Films»
Pелиз на DVD: 2 сентября 2014, «Lizard Cinema Trade»
Pелиз на Blu-Ray: 2 сентября 2014, «Lizard Cinema Trade»
Возраст: 12+
--Качество: HDRip.
Формат: AVI.
Видео кодек: XviD.
Аудио кодек: AC3.
Видео: 1855 kb/s, 720x304.
Аудио: AC3, 448 kb/s (6 ch).-- --

M1

Complete name : D:\kino-5\2014 ([email protected]\13.rayon.Kirpichnye.osobnyaki.2014.D.BDRip.[by_RaZ0R].avi
Format : AVI
Format/Info : Audio Video Interleave
File size : 1.46 GiB
Duration : 1h 30mn
Overall bit rate : 2 313 Kbps
Writing application : VirtualDubModRus 1.5.10.2 (build 2542/release)
Writing library : VirtualDubMod build 2542/release
Video
ID : 0
Format : MPEG-4 Visual
Format profile : Advanced [email protected]
Format settings, BVOP : 1
Format settings, QPel : No
Format settings, GMC : No warppoints
Format settings, Matrix : Custom
Codec ID : XVID
Codec ID/Hint : XviD
Duration : 1h 30mn
Bit rate : 1 855 Kbps
Width : 720 pixels
Height : 304 pixels
Display aspect ratio : 2.35:1
Frame rate : 24.000 fps
Color space : YUV
Chroma subsampling : 4:2:0
Bit depth : 8 bits
Scan type : Progressive
Compression mode : Lossy
Bits/(Pixel*Frame) : 0.353
Stream size : 1.17 GiB (80%)
Writing library : XviD 73
Audio
ID : 1
Format : AC-3
Format/Info : Audio Coding 3
Mode extension : CM (complete main)
Codec ID : 2000
Duration : 1h 30mn
Bit rate mode : Constant
Bit rate : 448 Kbps
Channel(s) : 6 channels
Channel positions : Front: L C R, Side: L R, LFE
Sampling rate : 48.0 KHz
Bit depth : 16 bits
Compression mode : Lossy
Stream size : 289 MiB (19%)
Alignment : Split accross interleaves
Interleave, duration : 42 ms (1.00 video frame)
Interleave, preload duration : 500 ms

Скриншоты



-

Создавать темы 04-Сен-2014 11:58

[Профиль]  [ЛС] 

axeman

Стаж: 5 лет 1 месяц

Сообщений: 380

Симпатии: 50

Как давно я ждал, надеюсь не разочероватся

Создавать темы 04-Сен-2014 14:33

[Профиль]  [ЛС] 

X3JumperRaZ0R ®

Стаж: 5 лет 5 месяцев

Сообщений: 177

Симпатии: 151

axeman, Надейся всегда на лучшее

Создавать темы 04-Сен-2014 14:37

[Профиль]  [ЛС] 

Kenja_boy

Стаж: 4 года 10 месяцев

Сообщений: 17

Симпатии: 1

https://tas-ix.net/viewtopic.php?t=96974

Создавать темы 04-Сен-2014 15:54

[Профиль]  [ЛС] 

Grock

Стаж: 6 лет 10 месяцев

Сообщений: 637

Симпатии: 113

X3JumperRaZ0R, Готово

Создавать темы 04-Сен-2014 17:11

[Профиль]  [ЛС] 

djioev1994

Стаж: 5 лет 3 месяца

Сообщений: 8

пол уокер((((

Создавать темы 04-Сен-2014 17:39

[Профиль]  [ЛС] 

Adilov Anvar

Стаж: 3 года 10 месяцев

Сообщений: 19

уже было

Создавать темы 04-Сен-2014 17:53

[Профиль]  [ЛС] 

X3JumperRaZ0R ®

Стаж: 5 лет 5 месяцев

Сообщений: 177

Симпатии: 151

Grock, СПАСИБО Grock LIKE

Создавать темы 04-Сен-2014 21:39

[Профиль]  [ЛС] 

ali.mindarov007

Стаж: 5 лет 8 месяцев

Сообщений: 5

подскажите где кнопка спасибо или лайк

Создавать темы 05-Сен-2014 10:27

[Профиль]  [ЛС] 

eldor_84

Стаж: 5 лет 3 месяца

Сообщений: 29

Симпатии: 1

говно

Создавать темы 05-Сен-2014 22:08

[Профиль]  [ЛС] 

X3JumperRaZ0R ®

Стаж: 5 лет 5 месяцев

Сообщений: 177

Симпатии: 151

eldor_84, Кому как!

Создавать темы 06-Сен-2014 11:09

[Профиль]  [ЛС] 

Страх

Стаж: 4 года 2 месяца

Сообщений: 1131

Симпатии: 448

ради пола можно посмотреть. да ради озвучки L'one

Создавать темы 06-Сен-2014 17:47

[Профиль]  [ЛС] 

X3JumperRaZ0R ®

Стаж: 5 лет 5 месяцев

Сообщений: 177

Симпатии: 151

872324ради пола можно посмотреть. да ради озвучки L'one
Согласен mb

Создавать темы 08-Сен-2014 10:38

[Профиль]  [ЛС] 

Makbet85

Стаж: 4 года 1 месяц

Сообщений: 9

Не понимаю я вас. Пол что выдающимся актером был?

Создавать темы 11-Сен-2014 14:18

[Профиль]  [ЛС] 

Evgeny99

Стаж: 6 лет 11 месяцев

Сообщений: 82

Симпатии: 3

Makbet85
стадное чувство )

Создавать темы 11-Сен-2014 16:26

[Профиль]  [ЛС] 
Показать сообщения:    
Ответить на тему

Текущее время: 16-Дек 16:03

Часовой пояс: UTC + 5



Вы не можете начинать темы
Вы не можете отвечать на сообщения
Вы не можете редактировать свои сообщения
Вы не можете удалять свои сообщения
Вы не можете голосовать в опросах
Вы не можете прикреплять файлы к сообщениям
Вы не можете скачивать файлы