Наруто Ураганные хроники 375 / Naruto Shippuuden 375 (Датэ Хаято) [2014 г., Приключения, комедия, боевые искусства, сёнэн, HDTVRip]

Ответить на тему
 

sharof1 ®

Стаж: 4 года 5 месяцев

Сообщений: 26

Наруто Ураганные хроники 375 / Naruto Shippuuden 375
Год выпуска: 2014
Страна: Япония
Жанр: Приключения, комедия, боевые искусства, сёнэн
Продолжительность: 00:23:10
Перевод: Любительский (одноголосый)[RainDeath]
английский субтитры
Режиссер: Датэ Хаято
В ролях: Накамура Тиэ / 中村千絵 — Сакура Харуно
Такэучи Дзюнко / 竹内順子 — Наруто Узумаки
Сугияма Нориаки / 杉山紀彰 — Саске Учиха
Исида Акира / 石田彰 — Гаара
Иноуэ Кадзухико / 井上和彦 — Какаши Хатаке
Кудзира / くじら — Орочимару
Канна Нобутоси / 神奈延年 — Кабуто Якуси
Кацуки Масако / 勝生真沙子 — Цунадэ
Масукава Ёити / 増川洋一 — Рок Ли
Мидзуки Нана / 水樹奈々 — Хината Хьюга
Морикубо Сётаро / 森久保祥太郎 — Шикамару Нара
Оцука Хотю / 大塚芳忠 — Джирайя
Сибата Хидэкацу / 柴田秀勝 — Третий Хокаге
Исикава Хидэо / 石川英郎 — Итачи Учиха
Тотика Койти / 遠近孝一 — Нейджи Хьюга
Описание: Второе пришествие популярного аниме-сериала «Наруто».
Это аниме покроет вторую часть сюжетной линии манги, после событий в конце памятной арки о попытки вернуть Саске в деревню Скрытого Листа.
История вращается в основном вокруг новых приключений Узумаки Наруто, Харуно Сакуры и их поиска Учиха Саске после того как тот покинул родную деревню чтобы обрести силу у Орочимару. Сюжет также покажет большую ативность, чем прежде Акатсуки в продвижении их плана по захвату всех «хвостатых» монстров.
Качество: WEBRip
Формат: MPEG
Видео кодек: XviD
Аудио кодек: MP3
Видео: MPEG4 Video (H264) 1280x720 23.976fps 497kbps
Аудио: MP3 44100Hz stereo 127kbps [A: mp3, 44100 Hz, stereo, 127 kb/s]

MediaInfo

Video
ID : 1
Format : AVC
Format/Info : Advanced Video Codec
Format profile : [email protected]
Format settings, CABAC : Yes
Format settings, ReFrames : 4 frames
Codec ID : avc1
Codec ID/Info : Advanced Video Coding
Duration : 23mn 9s
Bit rate : 498 Kbps
Maximum bit rate : 4 110 Kbps
Width : 1 280 pixels
Height : 720 pixels
Display aspect ratio : 16:9
Frame rate mode : Constant
Frame rate : 23.976 fps
Color space : YUV
Chroma subsampling : 4:2:0
Bit depth : 8 bits
Scan type : Progressive
Bits/(Pixel*Frame) : 0.023
Stream size : 82.5 MiB (79%)
Title : Naruto_Shippuden-_Season_17_Episode_375.h264
Writing library : x264 core 138 r2358 9e941d1
Audio
ID : 2
Format : MPEG Audio
Format version : Version 1
Format profile : Layer 3
Mode : Joint stereo
Codec ID : 6B
Duration : 23mn 10s
Bit rate mode : Constant
Bit rate : 128 Kbps
Maximum bit rate : 134 Kbps
Channel(s) : 2 channels
Sampling rate : 44.1 KHz
Compression mode : Lossy
Stream size : 21.2 MiB (20%)
Encoded date : UTC 2014-09-03 15:04:47
Tagged date : UTC 2014-09-03 15:04:47

Скриншоты







Последний раз редактировалось: sharof1 (2014-09-04 22:25), всего редактировалось 4 раз(а)

Создавать темы 04-Сен-2014 22:18

[Профиль]  [ЛС] 

sharof1 ®

Стаж: 4 года 5 месяцев

Сообщений: 26

эта релиз не из мувера

Создавать темы 04-Сен-2014 22:21

[Профиль]  [ЛС] 

Азиз87

Стаж: 4 года 11 месяцев

Сообщений: 752

Симпатии: 143

871841эта релиз не из мувера
Как понятно с логотипа он с Узумаки онлайн вещателя? Тогда статус временная/недооформлено + Перевод: Любительский (одноголосый)[RainDeath]
английский субтитры и Качество: HDTVRip неправильно указано WEBRip. По причине того, что присутсвие видео материала выложенного с онлайн кинотеатров в разделе анимации не приветствуется, раздача получит поглощение.

Создавать темы 04-Сен-2014 23:13

[Профиль]  [ЛС] 

mich007

Стаж: 4 года

Сообщений: 4

почему не качается?????

Создавать темы 05-Сен-2014 10:25

[Профиль]  [ЛС] 

mich007

Стаж: 4 года

Сообщений: 4

дайте раздачу!!!!

Создавать темы 05-Сен-2014 10:26

[Профиль]  [ЛС] 

sLLx

Стаж: 6 лет 11 месяцев

Сообщений: 19

Странно, 720p качество, но весит как будто в качестве 360p

Создавать темы 05-Сен-2014 20:27

[Профиль]  [ЛС] 
Показать сообщения:    
Ответить на тему

Текущее время: 24-Окт 10:53

Часовой пояс: UTC + 5



Вы не можете начинать темы
Вы не можете отвечать на сообщения
Вы не можете редактировать свои сообщения
Вы не можете удалять свои сообщения
Вы не можете голосовать в опросах
Вы не можете прикреплять файлы к сообщениям
Вы не можете скачивать файлы