Клинок Королевы [TV+OVA] / Queen's Blade (Ёсимото Киндзи/Кагэяма Сигэнори) [без хардсаба] [RUS(ext), JAP+SUB] [2009-2013 г., боевые искусства, фэнтези, этти, BDRip] [720p]

Страницы :  1, 2, 3  След.

Ответить на тему
 

Азиз87 ®

Стаж: 4 года 11 месяцев

Сообщений: 752

Симпатии: 143

- Год выпуска: 2009
Страна: Япония
Жанр: боевые искусства, фэнтези, этти
Продолжительность: 12 эп. по 25 мин. + 6 спешлов
Выпуск: c 02.04.2009 по 18.06.2009-Студия: ARMS
Режиссер: Ёсимото Киндзи
Автор оригинала: Мацу Томохиро-Описание:
В мире «меча и колдовства», где бок о бок живут люди и магические расы, есть простой обычай – выбирать королеву волшебной страны каждые 4 года на турнире сильнейших воительниц. Правила турнира просты – соискательницы должны быть «от 12 и старше», разрешены любое волшебство и оружие, никакой расовой дискриминации. Победительница получает все, а турнир, к тому же, транслируется по всей стране через сеть магического дальновидения.
Сюжет начинается с отчаянного побега графской дочери Рейны на королевский турнир. Однако первая же встреча с сильной соперницей доказывает беглянке, что странствовать в одиночку ей еще рано. Только помощь бродяги и воровки Ристи позволяет Рейне сохранить жизнь и вернуться в замок, где поджидают разгневанные сестры, куда более серьезные претендентки на корону. Но Рейну уже не остановить, и в последующих боях она доказывает свое право носить материнские доспехи. Впереди – турнир, на который собираются сильнейшие воительницы и маги, ведьмы, жрицы и наемные убийцы, а также эльфы, гномы, призраки и ангелы!
© Hollow, World Art-Myanimelist.net:
Средний балл: 6.37 (scored by 15497 users)
Место в рейтинге: #5274
Фанаты: 34,432-

Раздача состоит из:

-
#1 Клинок Королевы [ТВ-1] - ТВ (12 эп. + 6 спэшлов), адаптация серии книг-игр, 2009
#2 Клинок Королевы [ТВ-2] - ТВ (12 эп. + 6 спэшлов), продолжение, 2009
#3 Клинок Королевы OVA-1 - OVA (6 эп.), продолжение, 2010
#4 Клинок Королевы OVA-2 - OVA (2 эп. + 2 спэшла), продолжение, 2011
#5 Клинок Королевы [ТВ-3] - ТВ (12 эп. + 6 спэшлов), продолжение, 2012
#6 Vanquished Queens - OVA (4 эп. + спэшлы), spinoff (ответвление сюжета), 2013
-
-

#2 Клинок Королевы (ТВ-2): Наследница трона / Queen's Blade: Gyokuza o Tsugu Mono

- Год выпуска: 2009
Страна: Япония
Жанр: боевые искусства, фэнтези, этти
Продолжительность: 12 эп. по 25 мин. + 6 спешлов
Выпуск: c 24.09.2009 по 10.12.2009-Студия: ARMS
Режиссер: Ёсимото Киндзи-Описание:
«В славном городе Гайносе вот-вот начнется финал Великого Турнира, который на четыре года определит имя следующей правительницы волшебной страны. Героини первого сезона после многих приключений добрались до столицы и готовы вступить в честный бой. Проблема, разумеется, в том, что честного боя как раз и не будет!
Правящая королева Алдра, дочь демона и смертной женщины, вовсе не против «остаться на третий срок». Клыки - королевские элитные воины и убийцы - уже готовы без лишнего шума проредить ряды претенденток. Таинственная Болотная Ведьма не смогла сорвать турнир и теперь плетет новые интриги, чтобы вывести в финал своих протеже. Безалаберная Нанаэль, ангел-хранитель турнира, вместо заботы о соблюдении правил думает только о себе. И уж точно никому не понять, чего хочет коварная и обольстительная Экидона, самый, пожалуй, опытный и умелый воин всего континента. Теперь Рэйне, Томоэ, Ристи и Сидзуке остается только беречь друг другу спину и драться изо всех сил, а нам остается верить – любимые героини все равно победят!
© Hollow, World Art-Информационные ссылки: AniDB || World Art || MAL
-

Качество: BDRip
Формат видео: MKV
Видео: x264 (Hi10p), 1280x720, ~3300 Kbps, 23.976 fps
Аудио JAP: Vorbis, 48000Hz, ~256 Kbps, 2ch
Аудио RUS: AAC, 48000Hz, ~192 Kbps, 2ch | внешними файлами | Eladiel
Аудио RUS: MP3, 44100Hz, ~192 Kbps, 2ch | внешними файлами | Noir & Cuba77
Субтитры RUS: переводчики Jenia aka Zub и Мария Гостюхина, редактор: Advokat | внешними файлами | Antravoco
-

Подробные тех. данные:

General
Unique ID                                : 192704065574646522185803610066254912808 (0x90F973F9BE66EC58B142149398915D28)
Complete name                            : [Winter] Queen`s Blade - Gyokuza o Tsugu Mono 01 [BDrip 1280x720 x264 Vorbis].mkv
Format                                   : Matroska
Format version                           : Version 2
File size                                : 556 MiB
Duration                                 : 23mn 44s
Overall bit rate mode                    : Variable
Overall bit rate                         : 3 272 Kbps
Encoded date                             : UTC 2013-05-02 15:11:35
Writing application                      : mkvmerge v2.9.8 ('C'est le bon') built on Aug 13 2009 12:49:06
Writing library                          : libebml v0.7.7 + libmatroska v0.8.1
Video
ID                                       : 1
Format                                   : AVC
Format/Info                              : Advanced Video Codec
Format profile                           : High [email protected]
Format settings, CABAC                   : Yes
Format settings, ReFrames                : 9 frames
Codec ID                                 : V_MPEG4/ISO/AVC
Duration                                 : 23mn 44s
Bit rate                                 : 2 951 Kbps
Width                                    : 1 280 pixels
Height                                   : 720 pixels
Display aspect ratio                     : 16:9
Frame rate mode                          : Constant
Frame rate                               : 23.976 fps
Color space                              : YUV
Chroma subsampling                       : 4:2:0
Bit depth                                : 10 bits
Scan type                                : Progressive
Bits/(Pixel*Frame)                       : 0.134
Stream size                              : 501 MiB (90%)
Writing library                          : x264 core 125 r2200 999b753
Encoding settings                        : cabac=1 / ref=9 / deblock=1:-2:-2 / analyse=0x3:0x133 / me=umh / subme=9 / psy=1 / psy_rd=0.90:0.00 / mixed_ref=1 / me_range=24 / chroma_me=1 / trellis=2 / 8x8dct=1 / cqm=0 / deadzone=21,11 / fast_pskip=1 / chroma_qp_offset=-2 / threads=6 / lookahead_threads=1 / sliced_threads=0 / nr=0 / decimate=0 / interlaced=0 / bluray_compat=0 / constrained_intra=0 / bframes=8 / b_pyramid=2 / b_adapt=2 / b_bias=0 / direct=1 / weightb=1 / open_gop=0 / weightp=2 / keyint=250 / keyint_min=23 / scenecut=40 / intra_refresh=0 / rc=crf / mbtree=0 / crf=15.7 / qcomp=0.70 / qpmin=9 / qpmax=40 / qpstep=4 / ip_ratio=1.40 / pb_ratio=1.30 / aq=1:0.90
Default                                  : No
Forced                                   : No
Audio
ID                                       : 2
Format                                   : Vorbis
Format settings, Floor                   : 1
Codec ID                                 : A_VORBIS
Duration                                 : 23mn 44s
Bit rate mode                            : Variable
Bit rate                                 : 256 Kbps
Channel count                            : 2 channels
Sampling rate                            : 48.0 KHz
Compression mode                         : Lossy
Stream size                              : 43.5 MiB (8%)
Writing library                          : libVorbis (Schaufenugget) (20101101 (Schaufenugget))
Language                                 : Japanese
Default                                  : Yes
Forced                                   : No

Скриншоты:

#3 Клинок Королевы (OVA-1): Прекрасные воительницы / Queen's Blade: Utsukushiki Toushi-tachi

- Год выпуска: 2010
Страна: Япония
Жанр: боевые искусства, фэнтези, этти
Продолжительность: 6 эп. по 30 мин.
Выпуск: c 09.08.2010 по 14.03.2011-Студия: ARMS
Режиссер: Ёсимото Киндзи-Описание:
«Куинз блейд: Прекрасные воительницы» — шестисерийное дополнение-эпилог к составляющим единое повествование двум сезонам сериала, сперва показавшееся мне занудным. Однако уже второй эпизод рассказывает вполне удобоваримую историю Алейн и её ученицы Новы, а затем появляется злая троица и скучать уже не приходится. Призрачная служанка Айри мучается (и пытается мучить товарок) своей маниакальной верностью, лапочка Менес всё так же одержима идеей возрождения тоталитарного древнего царства — получая, к своему удивлению, слабо финансово обеспеченную утопию, пластилиновая Мелона просто развлекается по мере сил (впрочем, не без попыток подвести философскую базу).
А потом им на голову сваливается ангелица Нанаэль — номинально самый положительный персонаж (на земле), а по существу существо вздорное, подлое и глупое (и едва ли не единственная гетеросексуалка франшизы; хотя нет, у Катлеи есть сын, а к концу сериала нашёлся и муж, малозаметный, правда).
© torbasow, World Art-Информационные ссылки: AniDB || World Art || MAL
-

Качество: BDRip
Формат видео: MKV
Видео: x264 (Hi10p), 1280x720, ~3000 Kbps, 23.976 fps
Аудио JAP: Vorbis, 48000Hz, ~256 Kbps, 2ch
Аудио RUS: AAC, 48000Hz, ~192 Kbps, 2ch | внешними файлами | Eladiel
Аудио RUS: AC3, 48000Hz, ~320 Kbps, 2ch | внешними файлами | Nika_Lenina
Субтитры RUS: редакторы: Advokat, Jenia aka Zub, переводчики: Jenia aka Zub, Мария Гостюхина | внешними файлами | Antravoco
-

Подробные тех. данные:

General
Unique ID                                : 193741446579234055941152737619994515650 (0x91C13ECED65083BDA671D202E09098C2)
Complete name                            :[Winter] Queen`s Blade - Utsukushiki Toushi-tachi 1 [BDrip 1280x720 x264 Vorbis].mkv
Format                                   : Matroska
Format version                           : Version 2
File size                                : 659 MiB
Duration                                 : 29mn 7s
Overall bit rate mode                    : Variable
Overall bit rate                         : 3 164 Kbps
Encoded date                             : UTC 2013-03-17 10:11:19
Writing application                      : mkvmerge v2.9.8 ('C'est le bon') built on Aug 13 2009 12:49:06
Writing library                          : libebml v0.7.7 + libmatroska v0.8.1
Video
ID                                       : 1
Format                                   : AVC
Format/Info                              : Advanced Video Codec
Format profile                           : High [email protected]
Format settings, CABAC                   : Yes
Format settings, ReFrames                : 9 frames
Codec ID                                 : V_MPEG4/ISO/AVC
Duration                                 : 29mn 7s
Bit rate                                 : 2 845 Kbps
Width                                    : 1 280 pixels
Height                                   : 720 pixels
Display aspect ratio                     : 16:9
Frame rate mode                          : Constant
Frame rate                               : 23.976 fps
Color space                              : YUV
Chroma subsampling                       : 4:2:0
Bit depth                                : 10 bits
Scan type                                : Progressive
Bits/(Pixel*Frame)                       : 0.129
Stream size                              : 593 MiB (90%)
Writing library                          : x264 core 129 r2230 1cffe9f
Encoding settings                        : cabac=1 / ref=9 / deblock=1:-2:-2 / analyse=0x3:0x133 / me=umh / subme=9 / psy=1 / psy_rd=0.90:0.00 / mixed_ref=1 / me_range=24 / chroma_me=1 / trellis=2 / 8x8dct=1 / cqm=0 / deadzone=21,11 / fast_pskip=1 / chroma_qp_offset=-2 / threads=6 / lookahead_threads=1 / sliced_threads=0 / nr=0 / decimate=0 / interlaced=0 / bluray_compat=0 / constrained_intra=0 / bframes=8 / b_pyramid=2 / b_adapt=2 / b_bias=0 / direct=1 / weightb=1 / open_gop=0 / weightp=2 / keyint=250 / keyint_min=23 / scenecut=40 / intra_refresh=0 / rc=crf / mbtree=0 / crf=16.0 / qcomp=0.70 / qpmin=9 / qpmax=40 / qpstep=4 / ip_ratio=1.40 / pb_ratio=1.30 / aq=1:0.90
Default                                  : No
Forced                                   : No
Audio
ID                                       : 2
Format                                   : Vorbis
Format settings, Floor                   : 1
Codec ID                                 : A_VORBIS
Duration                                 : 29mn 7s
Bit rate mode                            : Variable
Bit rate                                 : 256 Kbps
Channel count                            : 2 channels
Sampling rate                            : 48.0 KHz
Compression mode                         : Lossy
Stream size                              : 53.3 MiB (8%)
Writing library                          : libVorbis (Schaufenugget) (20101101 (Schaufenugget))
Language                                 : Japanese
Default                                  : Yes
Forced                                   : No

Скриншоты:

#4 Клинок Королевы (ОВА-2) / Queen's Blade OVA-2

- Год выпуска: 2011
Страна: Япония
Жанр: боевые искусства, фэнтези, этти
Продолжительность: (2 эп. + 2 спэшла), 20 мин.
Выпуск: c 29.10.2011 по 28.01.2012-Студия: ARMS
Режиссер: Кагэяма Сигэнори-Описание:
«Продолжение ТВ-сериалов о приключениях воительниц в фэнтезийном мире.
World Art-Информационные ссылки: AniDB || World Art || MAL
-

Качество: DVDRip
Формат видео: MKV
Видео: x264 (Hi10p), 1024x576, ~2200 Kbps, 23.976 fps
Аудио JAP: AC3, 48000Hz, ~384 kbps, 2 ch
Аудио RUS: AC3, 48000Hz, ~192 Kbps, 2ch | в составе контейнера | Eladiel
Субтитры RUS: Переводчик: Мария Гостюхина, Переводчик/Редактор/Тайм-код: Jenia aka Zub, Редактор: Advokat | внешними файлами | Fratelli + Advantage
-

Подробные тех. данные:

General
Unique ID                                : 233182474171289656434266178572718065441 (0xAF6D4F9A80C5EEAE81FAB2F4E4364721)
Complete name                            :Queen's Blade OVA-2 [1] [DVDRip, 576p, Hi10p, AC3].mkv
Format                                   : Matroska
Format version                           : Version 2
File size                                : 427 MiB
Duration                                 : 21mn 42s
Overall bit rate                         : 2 748 Kbps
Movie name                               : Queen's Blade: Rebellion OVA1
Encoded date                             : UTC 2013-05-13 00:31:11
Writing application                      : mkvmerge v3.4.0 ('Rapunzel') сборка от May 15 2010 09:38:20
Writing library                          : libebml v0.8.0 + libmatroska v0.9.0
Video
ID                                       : 1
Format                                   : AVC
Format/Info                              : Advanced Video Codec
Format profile                           : High [email protected]
Format settings, CABAC                   : Yes
Format settings, ReFrames                : 14 frames
Codec ID                                 : V_MPEG4/ISO/AVC
Duration                                 : 21mn 42s
Bit rate                                 : 2 117 Kbps
Width                                    : 1 024 pixels
Height                                   : 576 pixels
Display aspect ratio                     : 16:9
Frame rate mode                          : Constant
Frame rate                               : 23.976 fps
Color space                              : YUV
Chroma subsampling                       : 4:2:0
Bit depth                                : 10 bits
Scan type                                : Progressive
Bits/(Pixel*Frame)                       : 0.150
Stream size                              : 329 MiB (77%)
Writing library                          : x264 core 120 r2164 da19765
Encoding settings                        : cabac=1 / ref=14 / deblock=1:0:0 / analyse=0x3:0x133 / me=umh / subme=10 / psy=1 / psy_rd=1.00:0.00 / mixed_ref=1 / me_range=24 / chroma_me=1 / trellis=2 / 8x8dct=1 / cqm=0 / deadzone=21,11 / fast_pskip=0 / chroma_qp_offset=-2 / threads=12 / sliced_threads=0 / nr=0 / decimate=1 / interlaced=0 / bluray_compat=0 / constrained_intra=0 / bframes=8 / b_pyramid=2 / b_adapt=2 / b_bias=0 / direct=3 / weightb=1 / open_gop=0 / weightp=2 / keyint=250 / keyint_min=23 / scenecut=40 / intra_refresh=0 / rc=crf / mbtree=0 / crf=16.0 / qcomp=0.70 / qpmin=0 / qpmax=38 / qpstep=4 / ip_ratio=1.40 / pb_ratio=1.30 / aq=1:1.00
Language                                 : Japanese
Default                                  : Yes
Forced                                   : No
Audio #1
ID                                       : 2
Format                                   : AC-3
Format/Info                              : Audio Coding 3
Mode extension                           : CM (complete main)
Format settings, Endianness              : Big
Codec ID                                 : A_AC3
Duration                                 : 21mn 42s
Bit rate mode                            : Constant
Bit rate                                 : 192 Kbps
Channel count                            : 2 channels
Channel positions                        : Front: L R
Sampling rate                            : 48.0 KHz
Bit depth                                : 16 bits
Compression mode                         : Lossy
Stream size                              : 29.8 MiB (7%)
Title                                    : Eladiel
Language                                 : Russian
Default                                  : Yes
Forced                                   : No
Audio #2
ID                                       : 3
Format                                   : AC-3
Format/Info                              : Audio Coding 3
Mode extension                           : CM (complete main)
Format settings, Endianness              : Big
Codec ID                                 : A_AC3
Duration                                 : 21mn 42s
Bit rate mode                            : Constant
Bit rate                                 : 384 Kbps
Channel count                            : 2 channels
Channel positions                        : Front: L R
Sampling rate                            : 48.0 KHz
Bit depth                                : 16 bits
Compression mode                         : Lossy
Stream size                              : 59.6 MiB (14%)
Title                                    : Original
Language                                 : Japanese
Default                                  : No
Forced                                   : No

Скриншоты:

#5 Клинок Королевы (ТВ-3): Восстание / Queen's Blade: Rebellion

- Год выпуска: 2012
Страна: Япония
Жанр: боевые искусства, фэнтези, этти
Продолжительность: 12 эп. по 24 мин.
Выпуск: c 03.04.2012 по 19.06.2012-Студия: ARMS
Режиссер: Кагэяма Сигэнори-Описание:
«Добрая королева недолго управляла Гайносом. Рэйна исчезла, оставив трон, где ее сменила сводная сестра Клодетт Генерал Грома, женщина расчетливая и безжалостная. Клодетт быстро уничтожила независимую аристократию и правит железной рукой, расширяя свои владения и подавляя любое недовольство. Она отменила турнир, назначив себя пожизненной владычицей. Неудивительно, что вспыхнул мятеж, который возглавила Аннелотта, принцесса одной из завоеванных земель, девушка с таинственным прошлым. Теперь мятежный рыцарь собирает сторонников, чтобы низложить тирана, ибо законы магического мира такое не запрещают.
Королева Грома сочла ниже своего достоинства лично воевать с кучкой бандитов. Столицу надежно охраняют ее сестра Элина и наемница Юмир, а инквизитор Сигги встала во главе карателей. Сигги – молодая фанатичная жрица, причем истово верит, что правительницу выбирает Всевышний, и противиться Его воле есть тяжкий грех. Теперь сильнейшие бойцы королевства, да и окрестных стран, многие из которых хорошо знакомы зрителям, должны выбрать, за кого сражаться в начавшейся войне. В стороне не останется никто – даже Болотная Ведьма и бывшая королева, полудемон Алдра. Нам же остается переживать за прекрасных воительниц и желать победы… тем, кому поможет судьба. Ждите сюрпризов! И там, у арены, открывайте уже ворота!
© Hollow,, World Art-Информационные ссылки: AniDB || World Art || MAL
-

Качество: BDRip
Формат видео: MKV
Видео: x264 (Hi10p), 1280x720, ~3500 Kbps, 23.976 fps
Аудио JAP: Vorbis, 48000Hz, ~256 Kbps, 2ch
Аудио RUS: AC3, 48000Hz, ~192 Kbps, 2ch | внешними файлами | Eladiel
Аудио RUS: AC3, 48000Hz, ~192 Kbps, 2ch | внешними файлами | Nika Lenina
Субтитры RUS: переводчики Jenia aka Zub и Мария Гостюхина, редактор: Jenia aka Zub, Advokat | внешними файлами | Fratelli & Advantage
-

Подробные тех. данные:

General
Unique ID                                : 196854574822599855890801226090764530165 (0x9418CFE17697F7D0BC6345BD0DD371F5)
Complete name                            :[Winter] Queen`s Blade - Rebellion 01 [BDrip 1280x720 x264 Vorbis].mkv
Format                                   : Matroska
Format version                           : Version 2
File size                                : 690 MiB
Duration                                 : 23mn 42s
Overall bit rate mode                    : Variable
Overall bit rate                         : 4 069 Kbps
Encoded date                             : UTC 2012-07-01 17:52:46
Writing application                      : mkvmerge v2.9.7 ('Tenderness') built on Jul  1 2009 18:43:35
Writing library                          : libebml v0.7.7 + libmatroska v0.8.1
Video
ID                                       : 1
Format                                   : AVC
Format/Info                              : Advanced Video Codec
Format profile                           : High [email protected]
Format settings, CABAC                   : Yes
Format settings, ReFrames                : 9 frames
Codec ID                                 : V_MPEG4/ISO/AVC
Duration                                 : 23mn 42s
Bit rate                                 : 3 732 Kbps
Width                                    : 1 280 pixels
Height                                   : 720 pixels
Display aspect ratio                     : 16:9
Frame rate mode                          : Constant
Frame rate                               : 23.976 fps
Color space                              : YUV
Chroma subsampling                       : 4:2:0
Bit depth                                : 10 bits
Scan type                                : Progressive
Bits/(Pixel*Frame)                       : 0.169
Stream size                              : 633 MiB (92%)
Writing library                          : x264 core 125 r2200 999b753
Encoding settings                        : cabac=1 / ref=9 / deblock=1:-2:-2 / analyse=0x3:0x133 / me=umh / subme=9 / psy=1 / psy_rd=0.90:0.00 / mixed_ref=1 / me_range=24 / chroma_me=1 / trellis=2 / 8x8dct=1 / cqm=0 / deadzone=21,11 / fast_pskip=1 / chroma_qp_offset=-2 / threads=6 / lookahead_threads=1 / sliced_threads=0 / nr=0 / decimate=0 / interlaced=0 / bluray_compat=0 / constrained_intra=0 / bframes=8 / b_pyramid=2 / b_adapt=2 / b_bias=0 / direct=1 / weightb=1 / open_gop=0 / weightp=2 / keyint=250 / keyint_min=23 / scenecut=40 / intra_refresh=0 / rc=crf / mbtree=0 / crf=15.7 / qcomp=0.70 / qpmin=9 / qpmax=40 / qpstep=4 / ip_ratio=1.40 / pb_ratio=1.30 / aq=1:0.90
Default                                  : Yes
Forced                                   : No
Audio
ID                                       : 2
Format                                   : Vorbis
Format settings, Floor                   : 1
Codec ID                                 : A_VORBIS
Duration                                 : 23mn 42s
Bit rate mode                            : Variable
Bit rate                                 : 256 Kbps
Channel count                            : 2 channels
Sampling rate                            : 48.0 KHz
Compression mode                         : Lossy
Stream size                              : 43.4 MiB (6%)
Writing library                          : libVorbis (Schaufenugget) (20101101 (Schaufenugget))
Language                                 : Japanese
Default                                  : Yes
Forced                                   : No

Скриншоты:

Качество: BDRip
Формат видео: MKV
Видео: x264 (Hi10p), 1280x720, ~3400 Kbps, 23.976 fps
Аудио JAP: Vorbis, 48000Hz, ~256 Kbps, 2ch
Аудио RUS: AAC, 48000Hz, ~192 Kbps, 2ch | внешними файлами | Eladiel
Субтитры RUS: переводчики Jenia aka Zub и Мария Гостюхина, редактор: Advokat | внешними файлами | Antravoco
-

Подробные тех. данные:

General
Unique ID                                : 185985645710140153009457291424638472003 (0x8BEB884D54081D96905C4DD0688C8F43)
Complete name                            : [Winter] Queen`s Blade - Rurou no Senshi 01 [BDrip 1280x720 x264 Vorbis].mkv
Format                                   : Matroska
Format version                           : Version 2
File size                                : 538 MiB
Duration                                 : 23mn 44s
Overall bit rate mode                    : Variable
Overall bit rate                         : 3 166 Kbps
Encoded date                             : UTC 2013-05-01 07:23:14
Writing application                      : mkvmerge v2.9.8 ('C'est le bon') built on Aug 13 2009 12:49:06
Writing library                          : libebml v0.7.7 + libmatroska v0.8.1
Video
ID                                       : 1
Format                                   : AVC
Format/Info                              : Advanced Video Codec
Format profile                           : High [email protected]
Format settings, CABAC                   : Yes
Format settings, ReFrames                : 9 frames
Codec ID                                 : V_MPEG4/ISO/AVC
Duration                                 : 23mn 44s
Bit rate                                 : 2 847 Kbps
Width                                    : 1 280 pixels
Height                                   : 720 pixels
Display aspect ratio                     : 16:9
Frame rate mode                          : Constant
Frame rate                               : 23.976 fps
Color space                              : YUV
Chroma subsampling                       : 4:2:0
Bit depth                                : 10 bits
Scan type                                : Progressive
Bits/(Pixel*Frame)                       : 0.129
Stream size                              : 483 MiB (90%)
Writing library                          : x264 core 125 r2200 999b753
Encoding settings                        : cabac=1 / ref=9 / deblock=1:-2:-2 / analyse=0x3:0x133 / me=umh / subme=9 / psy=1 / psy_rd=0.90:0.00 / mixed_ref=1 / me_range=24 / chroma_me=1 / trellis=2 / 8x8dct=1 / cqm=0 / deadzone=21,11 / fast_pskip=1 / chroma_qp_offset=-2 / threads=6 / lookahead_threads=1 / sliced_threads=0 / nr=0 / decimate=0 / interlaced=0 / bluray_compat=0 / constrained_intra=0 / bframes=8 / b_pyramid=2 / b_adapt=2 / b_bias=0 / direct=1 / weightb=1 / open_gop=0 / weightp=2 / keyint=250 / keyint_min=23 / scenecut=40 / intra_refresh=0 / rc=crf / mbtree=0 / crf=15.8 / qcomp=0.70 / qpmin=9 / qpmax=40 / qpstep=4 / ip_ratio=1.40 / pb_ratio=1.30 / aq=1:0.90
Default                                  : No
Forced                                   : No
Audio
ID                                       : 2
Format                                   : Vorbis
Format settings, Floor                   : 1
Codec ID                                 : A_VORBIS
Duration                                 : 23mn 44s
Bit rate mode                            : Variable
Bit rate                                 : 256 Kbps
Channel count                            : 2 channels
Sampling rate                            : 48.0 KHz
Compression mode                         : Lossy
Stream size                              : 43.5 MiB (8%)
Writing library                          : libVorbis (Omnipresent) (20120203 (Omnipresent))
Language                                 : Japanese
Default                                  : Yes
Forced                                   : No

Скриншоты:

-


Последний раз редактировалось: Азиз87 (2015-06-17 22:06), всего редактировалось 2 раз(а)

Создавать темы 04-Сен-2014 23:59

[Профиль]  [ЛС] 

Топик был перенесен из форума Тестовый форум в форум BD, BDRip
Азиз87

Создавать темы 05-Сен-2014 23:34

 

Азиз87 ®

Стаж: 4 года 11 месяцев

Сообщений: 752

Симпатии: 143

Пункт #6 не был добавлен в связи с выходом на БД 4 серии только этой осенью, а также отсутствием озвучки. Дата запланированного начала сидирования намечена на 10 + числа этого месяца.

Создавать темы 05-Сен-2014 23:38

[Профиль]  [ЛС] 

rikimaruxxx

Стаж: 5 лет 3 месяца

Сообщений: 254

Симпатии: 42

отсутствие mx ы радует
м-б лучше заменить постер третьего сезона?

Создавать темы 06-Сен-2014 02:10

[Профиль]  [ЛС] 

bl4ckSun

Стаж: 4 года

Сообщений: 48

Симпатии: 1

ну что ждемс

Создавать темы 06-Сен-2014 18:11

[Профиль]  [ЛС] 

Азиз87 ®

Стаж: 4 года 11 месяцев

Сообщений: 752

Симпатии: 143

Специально для умников вроде таких https://tas-ix.net/profile.php?mode=viewprofile&u=70602 читаем первый комментарий к топику и зазря не "насилуем" кнопку позвать скачавших.

Создавать темы 10-Сен-2014 10:00

[Профиль]  [ЛС] 

aliiiw

Стаж: 4 года 9 месяцев

Сообщений: 11

Чёт непонятен последний комент, но тем не мении будет раздача или нет?????

Комментарий от Азиз87


10+ числа означают=от 10 до 20 числа месяца начало раздачи. Раздача в приоритете раздела Онгоингов.

Создавать темы 10-Сен-2014 18:09

[Профиль]  [ЛС] 

MeiDoCorpse

Стаж: 4 года 5 месяцев

Сообщений: 222

Симпатии: 14

Раздача в приоритете раздела Онгоингов
А для более лёгкого восприятия лучше - "раздача онгоингов в приоритете"

Создавать темы 11-Сен-2014 07:32

[Профиль]  [ЛС] 

LikeSmile

Стаж: 4 года 5 месяцев

Сообщений: 298

Симпатии: 48

буду сидеть до 5 сидеров

Создавать темы 11-Сен-2014 07:53

[Профиль]  [ЛС] 

Libra

Стаж: 4 года 7 месяцев

Сообщений: 20

Симпатии: 1

Кто-то отвечаю любит нажимать на кнопку позвать скачавших. Чувак имей терпения. Спасибо за понимание. От того что вы насилуете эту кнопку раздача быстрее не станет. td

Создавать темы 25-Сен-2014 21:37

[Профиль]  [ЛС] 

daniellya

Стаж: 5 лет 6 месяцев

Сообщений: 338

Симпатии: 29

Прекратите насиловать кнопку позвать скачавших, надоело в конце концов =___=

Создавать темы 29-Сен-2014 00:52

[Профиль]  [ЛС] 

LikeSmile

Стаж: 4 года 5 месяцев

Сообщений: 298

Симпатии: 48

Создавать темы 29-Сен-2014 02:48

[Профиль]  [ЛС] 

6apb1ra

Стаж: 5 лет 9 месяцев

Сообщений: 16

заранее извините, возможно глупый вопрос, но как запустить русскую озвучку? заранее спасибо за ответ и за понимание

Создавать темы 06-Окт-2014 15:09

[Профиль]  [ЛС] 

Азиз87 ®

Стаж: 4 года 11 месяцев

Сообщений: 752

Симпатии: 143

881950заранее извините, возможно глупый вопрос, но как запустить русскую озвучку? заранее спасибо за ответ и за понимание
  • в Лайт Алоу жмем ALT+A и указываем на файл озвучки (каждый раз указывать требуется при просмотре следующего эпизода видео).
  • для Медиа Плеер Классик нужно СКОПИРОВАТЬ (если вырежете при недокаченном релизе торрент-клиент даст ошибку кэш сумм) файлы звука в папку с видео и через вкладку "Воспроизведение"-"Аудио" выбрать файл озвучки

Создавать темы 12-Окт-2014 12:53

[Профиль]  [ЛС] 

MsI_HET

Стаж: 4 года

Сообщений: 9

Симпатии: 4

народ что скорости нету?(

Создавать темы 01-Ноя-2014 13:20

[Профиль]  [ЛС] 
Показать сообщения:    
Ответить на тему

Текущее время: 24-Окт 09:11

Часовой пояс: UTC + 5



Вы не можете начинать темы
Вы не можете отвечать на сообщения
Вы не можете редактировать свои сообщения
Вы не можете удалять свои сообщения
Вы не можете голосовать в опросах
Вы не можете прикреплять файлы к сообщениям
Вы не можете скачивать файлы