Железнодорожные Войны / Rail Wars (Суэда Ёсифуми) [TV] [12 из 12] [RUS] [FruKt, Гамлетка Цезаревна] [2014 г., приключения, комедия, романтика, HDTVRip] [720p]

Ответить на тему
 

SNIL ®

Стаж: 5 лет 8 месяцев

Сообщений: 2624

Симпатии: 341

Железнодорожные Войны
Rail Wars
-
Год выпуска: 2014
Страна: Япония
Жанр: приключения, комедия, романтика
Продолжительность: 12 эп. по 25 мин.-Озвучка:
  • FruKt, Гамлетка Цезаревна
-Режиссёр: Суэда Ёсифуми
Автор оригинала: Тоёда Такуми
Студия: Passione-Описание:
Только в Японии есть слово, означающее крайнюю степень любви к поездам и готовность провести в них всю жизнь. Мир сериала именно для таких – в нем госмонополист ЯЖД опутал железными нитями всю страну Ямато и, несмотря на отсутствие конкурентов, с восточным коварством борется за наивысший уровень сервиса и комфорта для пассажиров. Любая работа «на дороге» почетна и престижна, а если еще и душа к ней лежит, то прямой путь в академию, куда и поступает главный герой Наото Такаяма. Еще на подготовительных курсах судьба закинула парня на отделение безопасности, где он и встретил своих друзей и коллег!-Качество: HDTVRip
Формат видео: mp4
Видео: x264 (8 bits), 1280х720, 1 800 kbps, 25.000 fps
Аудио Russian: ААС, 44.0 kHz, 128 Kbps, 2ch -

Подробные тех. данные

E:\Аниме\Rail Wars\Rail Wars [1] [FruKt & Гамлетка Цезаревна].mp4
   General
      Complete name : E:\Аниме\Rail Wars\Rail Wars [1] [FruKt & Гамлетка Цезаревна].mp4
      Format : MPEG-4
      Format profile : Base Media
      Codec ID : isom
      File size : 351 MiB
      Duration : 24mn 30s
      Overall bit rate : 2 005 Kbps
      Writing application : Lavf54.59.106
   Video #1
      ID : 1
      Format : AVC
      Format/Info : Advanced Video Codec
      Format profile : [email protected]
      Format settings, CABAC : Yes
      Format settings, ReFrames : 4 frames
      Codec ID : avc1
      Codec ID/Info : Advanced Video Coding
      Duration : 24mn 30s
      Duration_LastFrame : -12ms
      Bit rate mode : Variable
      Bit rate : 1 800 Kbps
      Width : 1 280 pixels
      Height : 720 pixels
      Display aspect ratio : 16:9
      Frame rate mode : Constant
      Frame rate : 25.000 fps
      Color space : YUV
      Chroma subsampling : 4:2:0
      Bit depth : 8 bits
      Scan type : Progressive
      Bits/(Pixel*Frame) : 0.078
      Stream size : 328 MiB (93%)
      Writing library : x264 core 129
      Encoding settings : cabac=1 / ref=3 / deblock=1:0:0 / analyse=0x3:0x113 / me=hex / subme=7 / psy=1 / psy_rd=1.00:0.00 / mixed_ref=1 / me_range=16 / chroma_me=1 / trellis=1 / 8x8dct=1 / cqm=0 / deadzone=21,11 / fast_pskip=1 / chroma_qp_offset=-2 / threads=24 / lookahead_threads=4 / sliced_threads=0 / nr=0 / decimate=1 / interlaced=0 / bluray_compat=0 / constrained_intra=0 / bframes=3 / b_pyramid=2 / b_adapt=1 / b_bias=0 / direct=1 / weightb=1 / open_gop=0 / weightp=2 / keyint=250 / keyint_min=25 / scenecut=40 / intra_refresh=0 / rc_lookahead=40 / rc=abr / mbtree=1 / bitrate=1800 / ratetol=1.0 / qcomp=0.60 / qpmin=0 / qpmax=69 / qpstep=4 / ip_ratio=1.40 / aq=1:1.00
   Audio #2
      ID : 2
      Format : AAC
      Format/Info : Advanced Audio Codec
      Format version : Version 4
      Format profile : LC
      Format settings, SBR : No
      Codec ID : 40
      Duration : 24mn 29s
      Bit rate mode : Constant
      Bit rate : 128 Kbps
      Channel(s) : 2 channels
      Channel positions : Front: L R
      Sampling rate : 44.1 KHz
      Stream size : 22.4 MiB (6%)
      Language : Russian

Скриншоты

[ ]


Последний раз редактировалось: SNIL (2014-09-24 06:20), всего редактировалось 1 раз

Создавать темы 05-Сен-2014 13:08

[Профиль]  [ЛС] 

SNIL ®

Стаж: 5 лет 8 месяцев

Сообщений: 2624

Симпатии: 341

Обновлено до 10й серии

Создавать темы 13-Сен-2014 17:58

[Профиль]  [ЛС] 

dante_one

Стаж: 3 года 10 месяцев

Сообщений: 16

как все гда грудь просто шииикарно нарисована

Создавать темы 13-Сен-2014 20:17

[Профиль]  [ЛС] 

veniamin

Стаж: 6 лет 11 месяцев

Сообщений: 36

Симпатии: 1

Раздача бывает?

Комментарий от SNIL


Ну как бы люди уже и скачали!

Создавать темы 16-Сен-2014 08:24

[Профиль]  [ЛС] 

Топик был перенесен из форума Аниме онгоинги в форум HD, HDTVRip
SNIL

Создавать темы 24-Сен-2014 06:21

 

SNIL ®

Стаж: 5 лет 8 месяцев

Сообщений: 2624

Симпатии: 341

Обновлено до 12й серии.
Релиз завершён!

Создавать темы 24-Сен-2014 06:22

[Профиль]  [ЛС] 
Показать сообщения:    
Ответить на тему

Текущее время: 23-Сен 03:38

Часовой пояс: UTC + 5



Вы не можете начинать темы
Вы не можете отвечать на сообщения
Вы не можете редактировать свои сообщения
Вы не можете удалять свои сообщения
Вы не можете голосовать в опросах
Вы не можете прикреплять файлы к сообщениям
Вы не можете скачивать файлы