Алдноа Зеро / Aldnoah Zero (Аоки Эй) [TV] [12 из 12] [RUS] [JAM, Holly] [2014 г., приключения, фантастика, меха, HDTVRip] [720p]

Ответить на тему
 

SNIL ®

Стаж: 5 лет 7 месяцев

Сообщений: 2624

Симпатии: 341

Алдноа Зеро
Aldnoah Zero
-
Год выпуска: 2014
Страна: Япония
Жанр: приключения, фантастика, меха
Продолжительность: 12 эп. по 25 мин.-Озвучка:
  • JAM, Holly
-Режиссёр: Аоки Эй
Автор оригинала: Уробути Гэн
Студия: А1-Описание:
Причина прекращения лунных программ будоражит многие умы, и в этом аниме показана альтернативная версия событий. В 1972 году миссия «Аполлон-17» обнаружила на поверхности нашего спутника космические врата. Через них можно в одно мгновенье переместиться на Марс. Разумеется, ученые считают это подарком свыше, ведь колонизация Красной планеты ранее была несбыточной мечтой, до Луны же добраться намного проще.
Через врата устремляются целые караваны астронавтов, поселенцев, строителей – всех тех, кто должен будет создать там колонию. Будет ли успешной эта колонизация? Инфраструктура Марса развивается очень быстро, и из колонии он превращается в самостоятельную планету со своим правительством, своими законами, своей армией…
И спустя несколько десятилетий земные выходцы, заселившие Красную планету, объявляют войну Земле. Что послужило причиной этому? Никто не знает, но люди пошли войной на людей, построив гигантские машины, спускающиеся с небес и истребляющие всё на поверхности нашей планеты. Причин агрессии завоеватели не называют, но цели очевидны. Армии земных государств объединяют усилия и дают отпор неожиданному агрессору, но дальнейшая судьба обоих миров неизвестна…-Качество: HDTVRip
Формат видео: mp4
Видео: x264 (8 bits), 1280х720, 1 800 kbps, 25.000 fps
Аудио Russian: ААС, 44.0 kHz, 128 Kbps, 2ch -

Подробные тех. данные

E:\Аниме\Aldnoah Zero\Aldnoah Zero [1] [JAM & Holly].mp4
   General
      Complete name : E:\Аниме\Aldnoah Zero\Aldnoah Zero [1] [JAM & Holly].mp4
      Format : MPEG-4
      Format profile : Base Media
      Codec ID : isom
      File size : 331 MiB
      Duration : 24mn 0s
      Overall bit rate : 1 927 Kbps
      Writing application : Lavf54.59.106
   Video #1
      ID : 1
      Format : AVC
      Format/Info : Advanced Video Codec
      Format profile : [email protected]
      Format settings, CABAC : Yes
      Format settings, ReFrames : 4 frames
      Codec ID : avc1
      Codec ID/Info : Advanced Video Coding
      Duration : 24mn 0s
      Duration_LastFrame : -1ms
      Bit rate mode : Variable
      Bit rate : 1 800 Kbps
      Width : 1 280 pixels
      Height : 720 pixels
      Display aspect ratio : 16:9
      Frame rate mode : Constant
      Frame rate : 25.000 fps
      Color space : YUV
      Chroma subsampling : 4:2:0
      Bit depth : 8 bits
      Scan type : Progressive
      Bits/(Pixel*Frame) : 0.078
      Stream size : 308 MiB (93%)
      Writing library : x264 core 129
      Encoding settings : cabac=1 / ref=3 / deblock=1:0:0 / analyse=0x3:0x113 / me=hex / subme=7 / psy=1 / psy_rd=1.00:0.00 / mixed_ref=1 / me_range=16 / chroma_me=1 / trellis=1 / 8x8dct=1 / cqm=0 / deadzone=21,11 / fast_pskip=1 / chroma_qp_offset=-2 / threads=24 / lookahead_threads=4 / sliced_threads=0 / nr=0 / decimate=1 / interlaced=0 / bluray_compat=0 / constrained_intra=0 / bframes=3 / b_pyramid=2 / b_adapt=1 / b_bias=0 / direct=1 / weightb=1 / open_gop=0 / weightp=2 / keyint=250 / keyint_min=25 / scenecut=40 / intra_refresh=0 / rc_lookahead=40 / rc=abr / mbtree=1 / bitrate=1800 / ratetol=1.0 / qcomp=0.60 / qpmin=0 / qpmax=69 / qpstep=4 / ip_ratio=1.40 / aq=1:1.00
   Audio #2
      ID : 2
      Format : AAC
      Format/Info : Advanced Audio Codec
      Format version : Version 4
      Format profile : LC
      Format settings, SBR : No
      Codec ID : 40
      Duration : 23mn 59s
      Bit rate mode : Constant
      Bit rate : 128 Kbps
      Channel(s) : 2 channels
      Channel positions : Front: L R
      Sampling rate : 44.1 KHz
      Stream size : 22.0 MiB (7%)
      Language : English

Скриншоты

]


Последний раз редактировалось: SNIL (2014-09-23 07:55), всего редактировалось 3 раз(а)

Создавать темы 08-Сен-2014 22:05

[Профиль]  [ЛС] 

SNIL ®

Стаж: 5 лет 7 месяцев

Сообщений: 2624

Симпатии: 341

Обновлено до 10й серии

Создавать темы 13-Сен-2014 17:58

[Профиль]  [ЛС] 

RAFA 97

Стаж: 5 лет 5 месяцев

Сообщений: 14

Симпатии: 1

Респект За Аниме - Надеюсь Незабросиш Выкладывать!

Комментарий от SNIL


Конечно добью!)

Создавать темы 13-Сен-2014 18:19

[Профиль]  [ЛС] 

SNIL ®

Стаж: 5 лет 7 месяцев

Сообщений: 2624

Симпатии: 341

Обновлено до 11й серии

Создавать темы 17-Сен-2014 09:29

[Профиль]  [ЛС] 

SNIL ®

Стаж: 5 лет 7 месяцев

Сообщений: 2624

Симпатии: 341

Релиз завершён (Приятного просмотра)!


Последний раз редактировалось: SNIL (2014-09-23 07:55), всего редактировалось 1 раз

Создавать темы 23-Сен-2014 07:54

[Профиль]  [ЛС] 

Топик был перенесен из форума Аниме онгоинги в форум HD, HDTVRip
SNIL

Создавать темы 23-Сен-2014 07:54

 
Показать сообщения:    
Ответить на тему

Текущее время: 22-Авг 12:26

Часовой пояс: UTC + 5



Вы не можете начинать темы
Вы не можете отвечать на сообщения
Вы не можете редактировать свои сообщения
Вы не можете удалять свои сообщения
Вы не можете голосовать в опросах
Вы не можете прикреплять файлы к сообщениям
Вы не можете скачивать файлы