Из Парижа с любовью / From Paris with Love (Пьер Морель) [2010 г., боевик, триллер, комедия, криминал, BDRip-AVC]

Ответить на тему
 

razor2011 ®

Стаж: 5 лет

Сообщений: 227

Симпатии: 37

Из Парижа с любовью / From Paris with Love«Two agents. One city. No merci» Год выпуска: 2010
Страна: Франция, США
Жанр: боевик, триллер, комедия, криминал
Продолжительность: 01:32:39
Перевод: Профессиональный (дублированный) , Авторский (одноголосый закадровый), А. Гаврилов
Cубтитры: русские, английские
Режиссер: Пьер Морель
В ролях: Джон Траволта, Джонатан Риз Майерс, Чемс Дамани, Кася Смутняк, Ричард Дурден, Йин Бинг, Эмбер Роуз Рева, Эрик Гордон, Сами Дарр
Описание: Джеймсу можно позавидовать: должность личного помощника посла США во Франции, красавица-парижанка в качестве подружки, дорогие костюмы и непыльная работенка оперативника ЦРУ. Но мечтает он совсем о другом, о полной приключений жизни настоящего тайного агента, спасающего мир кулаками, выстрелами и едкими репликами. Судьба иронично улыбается Джеймсу. Он получает настоящее боевое задание в придачу с напарником-сорвиголовой Чарли Уэксом. Но вскоре он понимает, что быть супер агентом не так уж и здорово, как он представлял...
Доп. информация:
 
Качество: BDRip-AVC
Формат: MKV
Видео кодек: H.26x
Аудио кодек: AC3
Видео: AVC 1152x492 (2.35:1), 23.976 fps, ~4500 Kbps, 0.33 bit/pixel
Аудио #1: Russian AC3 6ch 48kHz 448Kbps | Dub
Аудио #2: Russian AC3 6ch 48kHz 448Kbps | AVO Гаврилов
Аудио #3: English AC3 6ch 48kHz 448Kbps | Original
Формат субтитров: softsub (SRT)
Главы: есть

MediaInfo | x264

x264

--[NoImage] raw [info]: 1152x492p 1:1 @ 24000/1001 fps (cfr)
--[NoImage] x264 [info]: using SAR=1/1
--[NoImage] x264 [info]: using cpu capabilities: MMX2 SSE2Fast SSEMisalign LZCNT
--[NoImage] x264 [info]: profile High, level 4.1
--[NoImage] x264 [info]: cabac=1 ref=11 deblock=1:-3:-2 analyse=0x3:0x113 me=umh subme=11 psy=1 fade_compensate=0.00 psy_rd=1.00:0.10 mixed_ref=1 me_range=48 chroma_me=1 trellis=2 8x8dct=1 cqm=0 deadzone=21,11 fast_pskip=0 chroma_qp_offset=-3 threads=6 lookahead_threads=1 sliced_threads=0 nr=0 decimate=0 interlaced=0 bluray_compat=0 constrained_intra=0 bframes=13 b_pyramid=2 b_adapt=2 b_bias=0 direct=3 weightb=1 open_gop=0 weightp=2 keyint=240 keyint_min=23 scenecut=40 intra_refresh=0 rc_lookahead=0 rc=2pass mbtree=0 bitrate=4490 ratetol=1.0 qcomp=0.65 qpmin=0 qpmax=69 qpstep=4 cplxblur=20.0 qblur=0.5 vbv_maxrate=50000 vbv_bufsize=62500 nal_hrd=none ip_ratio=1.40 pb_ratio=1.30 aq=3:1.10 zones=126610,133293,q=30
--[NoImage] frames fps kb/s elapsed remain size est.size
--[NoImage] x264 [info]: frame I:1153 Avg QP:16.94 size:100786
--[NoImage] x264 [info]: frame P:27936 Avg QP:19.97 size: 40714
--[NoImage] x264 [info]: frame B:104205 Avg QP:21.25 size: 17911
--[NoImage] x264 [info]: consecutive B-frames: 2.4% 2.6% 7.5% 12.9% 15.4% 48.5% 4.6% 1.5% 0.9% 1.1% 1.1% 0.8% 0.4% 0.4%
--[NoImage] x264 [info]: mb I I16..4: 17.1% 68.6% 14.3%
--[NoImage] x264 [info]: mb P I16..4: 1.0% 26.1% 1.4% P16..4: 24.8% 31.2% 10.8% 0.0% 0.0% skip: 4.7%
--[NoImage] x264 [info]: mb B I16..4: 0.1% 3.1% 0.1% B16..8: 39.3% 23.6% 4.7% direct: 6.8% skip:22.3% L0:46.0% L1:44.9% BI: 9.1%
--[NoImage] x264 [info]: 8x8 transform intra:90.0% inter:62.2%
--[NoImage] x264 [info]: direct mvs spatial:98.9% temporal:1.1%
--[NoImage] x264 [info]: coded y,uvDC,uvAC intra: 95.7% 93.8% 84.4% inter: 39.4% 36.9% 20.8%
--[NoImage] x264 [info]: i16 v,h,dc,p: 27% 12% 18% 44%
--[NoImage] x264 [info]: i8 v,h,dc,ddl,ddr,vr,hd,vl,hu: 7% 7% 11% 10% 14% 13% 13% 11% 13%
--[NoImage] x264 [info]: i4 v,h,dc,ddl,ddr,vr,hd,vl,hu: 10% 8% 4% 9% 16% 14% 15% 11% 13%
--[NoImage] x264 [info]: i8c dc,h,v,p: 54% 15% 13% 19%
--[NoImage] x264 [info]: Weighted P-Frames: Y:2.9% UV:1.1%
--[NoImage] x264 [info]: ref P L0: 46.7% 5.5% 18.2% 8.6% 6.3% 4.6% 3.6% 2.2% 1.7% 1.4% 1.1% 0.1% 0.0%
--[NoImage] x264 [info]: ref B L0: 66.2% 15.1% 7.2% 3.9% 2.6% 1.9% 1.5% 0.9% 0.5% 0.2%
--[NoImage] x264 [info]: ref B L1: 91.3% 8.7%
--[NoImage] x264 [info]: kb/s:4489.61
General
Complete name : E:\...\From.Paris.with.Love.2010.BDRip.x264.DD5.1.Rus.Eng-E76.mkv
Format : Matroska
Format version : Version 4 / Version 2
File size : 3.78 GiB
Duration : 1h 32mn
Overall bit rate : 5 837 Kbps
Movie name : From.Paris.with.Love.2010.BDRip.x264.DD5.1.Rus.Eng-E76
Encoded date : UTC 2013-05-14 22:38:42
Writing application : mkvmerge v6.1.0 ('Old Devil') built on Mar 2 2013 14:32:37
Writing library : libebml v1.3.0 + libmatroska v1.4.0
Attachment : Yes / Yes / Yes
Video
ID : 1
Format : AVC
Format/Info : Advanced Video Codec
Format profile : [email protected]
Format settings, CABAC : Yes
Format settings, ReFrames : 11 frames
Codec ID : V_MPEG4/ISO/AVC
Duration : 1h 32mn
Bit rate : 4 490 Kbps
Width : 1 152 pixels
Height : 492 pixels
Display aspect ratio : 2.35:1
Frame rate mode : Constant
Frame rate : 23.976 fps
Color space : YUV
Chroma subsampling : 4:2:0
Bit depth : 8 bits
Scan type : Progressive
Bits/(Pixel*Frame) : 0.330
Stream size : 2.83 GiB (75%)
Title : Encode by Enclave76
Writing library : x264 core 130 r2273kMod b3065e6
Encoding settings : cabac=1 / ref=11 / deblock=1:-3:-2 / analyse=0x3:0x113 / me=umh / subme=11 / psy=1 / fade_compensate=0.00 / psy_rd=1.00:0.10 / mixed_ref=1 / me_range=48 / chroma_me=1 / trellis=2 / 8x8dct=1 / cqm=0 / deadzone=21,11 / fast_pskip=0 / chroma_qp_offset=-3 / threads=6 / lookahead_threads=1 / sliced_threads=0 / nr=0 / decimate=0 / interlaced=0 / bluray_compat=0 / constrained_intra=0 / bframes=13 / b_pyramid=2 / b_adapt=2 / b_bias=0 / direct=3 / weightb=1 / open_gop=0 / weightp=2 / keyint=240 / keyint_min=23 / scenecut=40 / intra_refresh=0 / rc_lookahead=0 / rc=2pass / mbtree=0 / bitrate=4490 / ratetol=1.0 / qcomp=0.65 / qpmin=0 / qpmax=69 / qpstep=4 / cplxblur=20.0 / qblur=0.5 / vbv_maxrate=50000 / vbv_bufsize=62500 / nal_hrd=none / ip_ratio=1.40 / pb_ratio=1.30 / aq=3:1.10 / zones=126610,133293,q=30
Language : English
Default : No
Forced : No
Matrix coefficients : BT.709
Audio #1
ID : 2
Format : AC-3
Format/Info : Audio Coding 3
Mode extension : CM (complete main)
Format settings, Endianness : Big
Codec ID : A_AC3
Duration : 1h 32mn
Bit rate mode : Constant
Bit rate : 448 Kbps
Channel(s) : 6 channels
Channel positions : Front: L C R, Side: L R, LFE
Sampling rate : 48.0 KHz
Bit depth : 16 bits
Compression mode : Lossy
Stream size : 297 MiB (8%)
Title : Dub
Language : Russian
Default : Yes
Forced : No
Audio #2
ID : 3
Format : AC-3
Format/Info : Audio Coding 3
Mode extension : CM (complete main)
Format settings, Endianness : Big
Codec ID : A_AC3
Duration : 1h 32mn
Bit rate mode : Constant
Bit rate : 448 Kbps
Channel(s) : 6 channels
Channel positions : Front: L C R, Side: L R, LFE
Sampling rate : 48.0 KHz
Bit depth : 16 bits
Compression mode : Lossy
Stream size : 297 MiB (8%)
Title : AVO Gavrilov
Language : Russian
Default : No
Forced : No
Audio #3
ID : 4
Format : AC-3
Format/Info : Audio Coding 3
Mode extension : CM (complete main)
Format settings, Endianness : Big
Codec ID : A_AC3
Duration : 1h 32mn
Bit rate mode : Constant
Bit rate : 448 Kbps
Channel(s) : 6 channels
Channel positions : Front: L C R, Side: L R, LFE
Sampling rate : 48.0 KHz
Bit depth : 16 bits
Compression mode : Lossy
Stream size : 297 MiB (8%)
Title : Original
Language : English
Default : No
Forced : No
Text #1
ID : 5
Format : UTF-8
Codec ID : S_TEXT/UTF8
Codec ID/Info : UTF-8 Plain Text
Title : Voronine
Language : Russian
Default : No
Forced : No
Text #2
ID : 6
Format : UTF-8
Codec ID : S_TEXT/UTF8
Codec ID/Info : UTF-8 Plain Text
Title : Voronine coloured
Language : Russian
Default : No
Forced : No
Text #3
ID : 7
Format : UTF-8
Codec ID : S_TEXT/UTF8
Codec ID/Info : UTF-8 Plain Text
Title : Voronine SDH coloured
Language : Russian
Default : No
Forced : No
Text #4
ID : 8
Format : UTF-8
Codec ID : S_TEXT/UTF8
Codec ID/Info : UTF-8 Plain Text
Language : English
Default : No
Forced : No
Menu
00:00:00.000 : en:00:00:00.000
00:06:41.484 : en:00:06:41.484
00:10:17.492 : en:00:10:17.492
00:17:21.332 : en:00:17:21.332
00:20:18.676 : en:00:20:18.676
00:24:47.820 : en:00:24:47.820
00:29:43.615 : en:00:29:43.615
00:37:39.340 : en:00:37:39.340
00:44:23.452 : en:00:44:23.452
00:49:37.516 : en:00:49:37.516
00:53:12.231 : en:00:53:12.231
00:58:11.947 : en:00:58:11.947
01:05:33.429 : en:01:05:33.429
01:12:38.771 : en:01:12:38.771
01:18:35.044 : en:01:18:35.044
01:25:38.925 : en:01:25:38.925

Скриншоты



Создавать темы 10-Сен-2014 11:42

[Профиль]  [ЛС] 

VAIO

Стаж: 5 лет 8 месяцев

Сообщений: 1568

Симпатии: 1399

Угу, Гаврилов тоже озвучивал :) надо скачать тогда + советую этот шикарный фильм всем :)

Создавать темы 10-Сен-2014 11:47

[Профиль]  [ЛС] 

Mirshod

Стаж: 4 года 11 месяцев

Сообщений: 10

отличный фильм!

Создавать темы 10-Сен-2014 11:51

[Профиль]  [ЛС] 

Топик был перенесен из форума Фильмы за 2010-2012 в форум HD-AVC
Mixer City

Создавать темы 10-Сен-2014 21:13

 

farhods333

Стаж: 5 лет 5 месяцев

Сообщений: 6

Проста супер фильм всем советую посмотреть))

Создавать темы 08-Ноя-2014 09:45

[Профиль]  [ЛС] 

farik9193

Стаж: 4 года 10 месяцев

Сообщений: 501

Симпатии: 47

верните на раздачу .

Создавать темы 30-Ноя-2014 21:53

[Профиль]  [ЛС] 
Показать сообщения:    
Ответить на тему

Текущее время: 26-Сен 12:31

Часовой пояс: UTC + 5



Вы не можете начинать темы
Вы не можете отвечать на сообщения
Вы не можете редактировать свои сообщения
Вы не можете удалять свои сообщения
Вы не можете голосовать в опросах
Вы не можете прикреплять файлы к сообщениям
Вы не можете скачивать файлы