MTV Video Music Awards (VMA), Церемония награждения [2014, SATRip]

Ответить на тему
 

sher_rap ®

Стаж: 5 лет 7 месяцев

Сообщений: 14

MTV Video Music Awards (VMA), Церемония награждения 2014
Год выпуска: 2014
Страна: США
Продолжительность: 01:21:36
Перевод: Профессиональный (двухголосый закадровый) /MTV Россия/
Телеканал: MTV Россия
Описание: Добро пожаловать на премию MTV VMA 2014! Тебя ждут самые яркие звезды современной музыкальной сцены, невероятные видеоклипы, потрясающие живые выступления...и 16 номинаций,включая самую главную - «видео года». Узнай, кто станет лучшим из лучших!
Качество: SATRip
Формат: MPG
Видео: 720x576 (16:9), 25.000 fps, 2833 Kbps
Аудио: MPEG Audio layer 2, 48.0 KHz, 2 ch, 192 Kbps

Скриншоты

MediaInfo

General
Complete name : C:\MTV.Video.Music.Awards.2014.mpg
Format : MPEG-PS
File size : 1.76 GiB
Duration : 1h 21mn
Overall bit rate mode : Variable
Overall bit rate : 3 086 Kbps
Video
ID : 224 (0xE0)
Format : MPEG Video
Format version : Version 2
Format profile : [email protected]
Format settings, BVOP : Yes
Format settings, Matrix : Custom
Format settings, GOP : Variable
Duration : 1h 21mn
Bit rate mode : Variable
Bit rate : 2 833 Kbps
Maximum bit rate : 5 000 Kbps
Width : 720 pixels
Height : 576 pixels
Display aspect ratio : 16:9
Frame rate : 25.000 fps
Standard : PAL
Color space : YUV
Chroma subsampling : 4:2:0
Bit depth : 8 bits
Scan type : Interlaced
Scan order : Top Field First
Compression mode : Lossy
Bits/(Pixel*Frame) : 0.273
Time code of first frame : 00:00:00:00
Time code source : Group of pictures header
Stream size : 1.61 GiB (92%)
Audio
ID : 192 (0xC0)
Format : MPEG Audio
Format version : Version 1
Format profile : Layer 2
Duration : 1h 21mn
Bit rate mode : Constant
Bit rate : 192 Kbps
Channel(s) : 2 channels
Sampling rate : 48.0 KHz
Compression mode : Lossy
Delay relative to video : 7ms
Stream size : 112 MiB (6%)

Создавать темы 10-Сен-2014 13:51

[Профиль]  [ЛС] 
Показать сообщения:    
Ответить на тему

Текущее время: 21-Сен 15:40

Часовой пояс: UTC + 5



Вы не можете начинать темы
Вы не можете отвечать на сообщения
Вы не можете редактировать свои сообщения
Вы не можете удалять свои сообщения
Вы не можете голосовать в опросах
Вы не можете прикреплять файлы к сообщениям
Вы не можете скачивать файлы