Адвокат Дьявола / The Devil's Advocate (Тейлор Хэкфорд) [1997 г., триллер, драма, детектив, HDTVRip]

Страницы :  1, 2  След.

Ответить на тему
 

SMaIL ®

Стаж: 3 года 6 месяцев

Сообщений: 740

Симпатии: 233

Адвокат Дьявола / The Devil's Advocate
Год выпуска: 1997
Страна: США, Германия
Жанр: триллер, драма, детектив
Продолжительность: 2:23:55
Перевод: Профессиональный (полное дублирование) [Лицензия]-Режиссер: Тейлор Хэкфорд-В ролях: Киану Ривз, Аль Пачино, Шарлиз Терон, Джеффри Джонс, Джудит Айви, Конни Нильсен, Крэйг Т. Нельсон, Тамара Тюни, Рубен Сантьяго-Хадсон, ,Дебра Монк-Описание: В Нью-Йорк по приглашению главы крупного юридического концерна прибывает Кевин Ломакс, молодой адвокат. До этого он был известен тем, что защищал исключительно негодяев и притом не проиграл ни одного процесса. На новом месте работы он вполне счастлив, он живет в роскошной квартире с любящей женой, его окружают интересные люди…
Доп. информация: Зрителям, достигшим 18 лет-Качество: HDTVRip
Формат: MKV
Видео кодек: - H264
Аудио кодек: AC3
Видео: MPEG4 Video (H264) 1280x544 23.98fps
Аудио:Аудио #1: [Russian] Dolby AC3 48000Hz 6ch
Аудио:Аудио #2: [English] AC3 48000Hz 6ch
-  

Награды

Премия канала «MTV», 1998 год
Номинации (1):
Лучший злодей (Аль Пачино)
Лучший актер (Аль Пачино)
Лучший сценарий
Лучший грим

MI

Video #1
      ID : 1
      Format : AVC
      Format/Info : Advanced Video Codec
      Format profile : [email protected]
      Format settings, CABAC : Yes
      Format settings, ReFrames : 8 frames
      Codec ID : V_MPEG4/ISO/AVC
      Duration : 2h 23mn
      Bit rate : 3 960 Kbps
      Width : 1 280 pixels
      Height : 544 pixels
      Display aspect ratio : 2.35:1
      Frame rate mode : Constant
      Frame rate : 23.976 fps
      Color space : YUV
      Chroma subsampling : 4:2:0
      Bit depth : 8 bits
      Scan type : Progressive
      Bits/(Pixel*Frame) : 0.237
      Stream size : 3.89 GiB (82%)
      Writing library : x264 core 54 svn-604
      Encoding settings : cabac=1 / ref=5 / deblock=1:0:0 / analyse=0x3:0x133 / me=hex / subme=7 / brdo=1 / mixed_ref=1 / me_range=16 / chroma_me=1 / trellis=1 / 8x8dct=1 / cqm=2 / deadzone=21,11 / chroma_qp_offset=0 / slices=2 / nr=0 / decimate=1 / mbaff=0 / bframes=3 / b_pyramid=1 / b_adapt=1 / b_bias=0 / direct=1 / wpredb=1 / bime=1 / keyint=250 / keyint_min=25 / scenecut=40 / rc=2pass / bitrate=3960 / ratetol=1.0 / rceq='blurCplx^(1-qComp)' / qcomp=0.60 / qpmin=10 / qpmax=51 / qpstep=4 / cplxblur=20.0 / qblur=0.5 / ip_ratio=1.40 / pb_ratio=1.30
      Language : English
      Default : Yes
      Forced : No
   Audio #2
      ID : 2
      Format : AC-3
      Format/Info : Audio Coding 3
      Mode extension : CM (complete main)
      Format settings, Endianness : Big
      Codec ID : A_AC3
      Duration : 2h 23mn
      Bit rate mode : Constant
      Bit rate : 384 Kbps
      Channel(s) : 6 channels
      Channel positions : Front: L C R, Side: L R, LFE
      Sampling rate : 48.0 KHz
      Bit depth : 16 bits
      Compression mode : Lossy
      Stream size : 395 MiB (8%)
      Title : Russian
      Language : Russian
      Default : Yes
      Forced : No
   Audio #3
      ID : 3
      Format : AC-3
      Format/Info : Audio Coding 3
      Mode extension : CM (complete main)
      Format settings, Endianness : Big
      Codec ID : A_AC3
      Duration : 2h 23mn
      Bit rate mode : Constant
      Bit rate : 384 Kbps
      Channel(s) : 6 channels
      Channel positions : Front: L C R, Side: L R, LFE
      Sampling rate : 48.0 KHz
      Bit depth : 16 bits
      Compression mode : Lossy
      Stream size : 395 MiB (8%)
      Title : English
      Language : English
      Default : No
      Forced : No

Скриншоты



Последний раз редактировалось: SMaIL (2014-09-12 16:46), всего редактировалось 1 раз

Создавать темы 12-Сен-2014 16:43

[Профиль]  [ЛС] 

Slapper

Стаж: 3 года 9 месяцев

Сообщений: 2193

Симпатии: 213

Видео кодек: Другой MPEG4
- H264

Создавать темы 12-Сен-2014 16:45

[Профиль]  [ЛС] 

SMaIL ®

Стаж: 3 года 6 месяцев

Сообщений: 740

Симпатии: 233

Slapper, стоит же ag

Создавать темы 12-Сен-2014 16:46

[Профиль]  [ЛС] 

VAIO

Стаж: 5 лет 7 месяцев

Сообщений: 1568

Симпатии: 1399

Жолдасбаев Сарвар, Хорошо оформили.
Отличный фильм, советую + еще в качестве.

Создавать темы 12-Сен-2014 17:04

[Профиль]  [ЛС] 

SMaIL ®

Стаж: 3 года 6 месяцев

Сообщений: 740

Симпатии: 233

VAIO, Спасибо))

Создавать темы 12-Сен-2014 17:16

[Профиль]  [ЛС] 

SMaIL ®

Стаж: 3 года 6 месяцев

Сообщений: 740

Симпатии: 233

На скорость не жалуемся))

Создавать темы 13-Сен-2014 14:18

[Профиль]  [ЛС] 

Tolik4523

Стаж: 5 лет 7 месяцев

Сообщений: 271

Симпатии: 27

О да! Давно ищу в качестве.
Запредельное СПАСИБО!

Создавать темы 13-Сен-2014 14:40

[Профиль]  [ЛС] 

Rayne

Стаж: 6 лет 4 месяца

Сообщений: 36

Симпатии: 2

пишет что скачан один раз, куда свалил скачавший?

Создавать темы 04-Ноя-2014 16:15

[Профиль]  [ЛС] 

Ernest

Стаж: 6 лет 4 месяца

Сообщений: 28

Симпатии: 1

Вообщем неделю пытался скачать данный фильм, но сидеров так и нет. всего лишь 2 человека. ушел на альтор там та же раздача, но из за того что нет английской дорожки весит меньше. качаю там, посмотрим где быстрей скачается.
уважаемые модераторы и админы, я уважаю ресурс тас-икс. но мне кажется из за закрытой регестрации у нас очень мало сидеров и пиров. может расшарим доступ? вон соседи с свободной регой быстрей намного обмениваются инфой. там на такую же раздачу 19 чел скачавших против 2 это же говорит о чем то

Создавать темы 03-Фев-2015 11:22

[Профиль]  [ЛС] 

Slapper

Стаж: 3 года 9 месяцев

Сообщений: 2193

Симпатии: 213

Ernest, регестрация откроется в ближайшее время (цитирую слова админа, сам к сожалению не знаю)

Создавать темы 03-Фев-2015 13:46

[Профиль]  [ЛС] 

Slapper

Стаж: 3 года 9 месяцев

Сообщений: 2193

Симпатии: 213

Ernest, регестрация откроется в ближайшее время (цитирую слова админа, сам к сожалению не знаю)

Создавать темы 03-Фев-2015 13:46

[Профиль]  [ЛС] 

SMaIL ®

Стаж: 3 года 6 месяцев

Сообщений: 740

Симпатии: 233

Ernest, качайте, раздаю .

Создавать темы 03-Фев-2015 14:07

[Профиль]  [ЛС] 

Ernest

Стаж: 6 лет 4 месяца

Сообщений: 28

Симпатии: 1

вы очень любезны)) но скорость выше 10.кб с

Создавать темы 03-Фев-2015 21:49

[Профиль]  [ЛС] 

SMaIL ®

Стаж: 3 года 6 месяцев

Сообщений: 740

Симпатии: 233

Ernest, я не виноват что это так, настройте свой торрент - клиент, тередо.
Скорость отдачи у меня 2 mb/s. bv

Создавать темы 03-Фев-2015 22:36

[Профиль]  [ЛС] 

Slapper

Стаж: 3 года 9 месяцев

Сообщений: 2193

Симпатии: 213

916915Ernest, я не виноват что это так, настройте свой торрент - клиент, тередо.
Скорость отдачи у меня 2 mb/s. bv
2 мб/с? вы это серьезно?

Создавать темы 03-Фев-2015 23:46

[Профиль]  [ЛС] 
Показать сообщения:    
Ответить на тему

Текущее время: 20-Авг 11:06

Часовой пояс: UTC + 5



Вы не можете начинать темы
Вы не можете отвечать на сообщения
Вы не можете редактировать свои сообщения
Вы не можете удалять свои сообщения
Вы не можете голосовать в опросах
Вы не можете прикреплять файлы к сообщениям
Вы не можете скачивать файлы