Годзилла / Godzilla (Гарет Эдвардс / Gareth Edwards) [2014, США, Япония, фантастика, боевик, триллер, BDRip 1080p] Dub + Sub (Rus, Eng) + Original (Eng)

Ответить на тему
 

razor2011 ®

Стаж: 5 лет 1 месяц

Сообщений: 227

Симпатии: 37

Годзилла / Godzilla-«The King Will Rise»- -Страна: США, Япония
Жанр: фантастика, боевик, триллер
Год выпуска: 2014
Продолжительность: 02:03:07-Перевод: Дублированный [ iTunes ]
Cубтитры: русские и английские
Оригинальная аудиодорожка: английский-Режиссер: Гарет Эдвардс / Gareth Edwards-В ролях: Элизабет Олсен, Брайан Крэнстон, Аарон Тейлор-Джонсон, Виктор Расук, Жюльет Бинош, Салли Хокинс, Кен Ватанабе, Дэвид Стрэтэйрн, С.Дж. Адамс, Ричард Т. Джонс и др.-Описание: Человечество случайно разбудило гигантское древнее существо, что повлекло за собой ужасающие последствия…- 
-Качество: BDRip 1080p | Формат: MKV
Видео: AVC, 1920x800, 23,976 fps 9483 kbps,
Аудио 1#: Ru | AC-3, 48.0 KHz, 6 ch, 384 Kbps
Аудио 2#: En | DTS, 48.0 KHz, 6 ch, 1509 kbps
Субтитры: UTF-8 Russian, English-

» Знаете ли вы, что...

  • Режиссер Гарет Эдвардс описал Годзиллу как анти-героя: «Годзилла, безусловно, является представлением гнева природы. Основной темой истории является борьба человека и природы, и Годзилла, конечно же, олицетворяет природу. Невозможно выиграть в этой схватке. Природа всегда будет победителем — в этом и заключается подтекст нашего фильма. Годзилла — это наказание, которого мы заслуживаем».
  • Выход фильма приурочен к 60-летию франшизы.
  • Рабочее название фильма — «Наутилус».
  • На главные роли рассматривались Скут МакНэйри, Генри Кавилл, Калеб Лэндри Джонс, Аарон Шанг.
  • Главную мужскую роль мог сыграть Джозеф Гордон-Левитт, но он отказался.
  • Во время съемок этого фильма оператор Шеймас МакГарви случайно зашел на расположенную на берегу озера съемочную площадку фильма «Планета обезьян: Революция» (2014), который снимали неподалеку, там же в Ванкувере. Эта площадка была очень похожа на ту, где снимали «Годзиллу», и поэтому МакГарви достаточно долгое время бродил там со своим фотометром, не узнавая никого, пока не понял свою ошибку.
  • Режиссер Гарет Эдвардс и группа дизайнеров просмотрела все предыдущие воплощения Годзиллы, чтобы создать внешний вид существа в фильме. Эдвардс рассказал: «Я пытался смотреть на это так: представьте, что Годзилла был настоящим существом, и кто-то из киностудии Toho увидел его в 1950-х, затем побежал на студию, чтобы снять о нем фильм, и старался изо всех сил, чтобы вспомнить и нарисовать его».
  • В этом фильме снялся Брайан Крэнстон, известный по своей роли больного раком школьного учителя в сериале «Во все тяжкие» (2008-2013). В оригинальном фильме «Годзилла» (1954) снимался Такаси Симура, который исполнял схожую роль в фильме «Жить» (1952).
  • Впервые постер фильма и его трейлер были продемонстрированы на выставке Comic-Con 2012.
    Монолог, который был использован в трейлере, сделанном фанатами фильма, принадлежит Роберту Оппенгеймеру, физику-ядерщику, который работал над атомной бомбой. В истории про Годзиллу именно атомная бомба послужила причиной появления монстра.
  • Оператор Шеймас МакГарви хотел, чтобы сцены 1950-х годов имели «очищенный вид с приглушенными цветами и размытыми границами». Чтобы добиться такого эффекта он снимал эти сцены на винтажный объектив 1960-х годов и затем оттенки черного в этих сценах окрасил в пурпурный цвет при помощи цифровой обработки.
  • Это последний фильм снятый студией Warner Bros в сотрудничестве со студией Legendary Pictures.
  • Студия Legendary Pictures обратилась в суд, чтобы выгнать из проекта продюсеров Дэна Лина, Роя Ли и Дага Дэвисона. Студия подала жалобу на основании деклараторной защиты в Верховный суд Лос-Анджелеса, утверждая, что Лин, Ли и Дэвисон угрожали подать в суд, если студия воспользуется своим правом — попросить их покинуть проект. В жалобе также указывалось, что все, что сделало это трио — это представило студии сценариста проекта.
  • После выхода к 50-летию франшизы фильма «Годзилла: Финальные войны» (2004) студия Toho объявила, что не будет снимать никаких фильмов о Годзилле в течение десяти лет. Режиссер Ёсимицу Банно получил права от Toho на съемки короткометражного фильма в формате IMAX 3D, основанного на измененной истории фильма «Годзилла против Хедоры» (1971). Затем к Банно и продюсеру Кэндзи Окухире присоединился оператор Питер Андерсон, который привел в проект продюсера Брайана Роджерса, и тогда состоялись повторные переговоры со студией Toho, но уже о полнометражном 3D-фильме. Также через Андерсона к проекту присоединилась продюсерская компания Kerner Optical. В течение нескольких лет проект постоянно сталкивался с проблемой увеличения бюджета и необходимостью дополнительного финансирования. В итоге в 2009 году проект перешел в руки студии Legendary Pictures.
  • После того, как в марте 2010 года Legendary Pictures приобрела права у Toho, студия официально объявила об этом проекте. Студия Warner Bros. Pictures выступила сопродюсером. Продюсеры Дэн Лин и Рой Ли присоединились к Брайану Роджерсу и исполнительным продюсерам Ёсимицу Банно, Кэндзи Окухире, Дагу Дэвисону, Томасу Туллу и Джону Дж. Джашни, чтобы начать работу над «Годзиллой». Студия Legendary Pictures также заявила, что проект не будет продолжением фильма «Годзилла» (1998).
  • В июле 2010 года на выставке Comic-Con International в Сан-Диего студия Legendary Pictures впервые продемонстрировала концепт-арт к «Годзилле».
  • Осенью 2010 года стало известно, что студия Legendary Pictures наняла сценариста Дэйва Каллахэма для работы над «Годзиллой». Режиссер Гарет Эдвардс присоединился к проекту в январе 2011 года. Затем было объявлено, что первая версия сценария Каллахэма будет переписана. В июле 2011 года для работы над сценарием взяли Дэвида С. Гойера, но он не смог закончить работу из-за несогласованности рабочих графиков, после чего в ноябре 2011 года был нанят Макс Боренштейн, чтобы написать новый сценарий, основанный уже на версии Гойера.
  • В фильме используется оригинальный звук из фильма «2001 год: Космическая одиссея» (1968) — фрагменты микрополифонических произведений венгерского музыканта-авангардиста Лигети.

MediaInfo

» MediaInfo
Format : Matroska
Format version : Version 4 / Version 2
File size : 9.78 GiB
Duration : 2h 3mn
Overall bit rate : 11.4 Mbps
Movie name : Годзилла 2014 BluRay 1080p Release by Sercor
Encoded date : UTC 2014-08-27 07:14:59
Writing application : mkvmerge v6.9.1 ('Blue Panther') 64bit built on Apr 18 2014 18:23:38
Writing library : libebml v1.3.0 + libmatroska v1.4.1
Cover : Yes
Video
ID : 1
Format : AVC
Format/Info : Advanced Video Codec
Format profile : [email protected]
Format settings, CABAC : Yes
Format settings, ReFrames : 5 frames
Codec ID : V_MPEG4/ISO/AVC
Duration : 2h 3mn
Bit rate : 9 483 Kbps
Width : 1 920 pixels
Height : 800 pixels
Display aspect ratio : 2.40:1
Frame rate mode : Constant
Frame rate : 23.976 fps
Color space : YUV
Chroma subsampling : 4:2:0
Bit depth : 8 bits
Scan type : Progressive
Bits/(Pixel*Frame) : 0.258
Stream size : 7.96 GiB (81%)
Title : Годзилла 2014 BluRay 1080p Release by Sercor
Writing library : x264 core 142 r2431 ac76440
Encoding settings : cabac=1 / ref=5 / deblock=1:-3:-3 / analyse=0x3:0x113 / me=umh / subme=10 / psy=1 / psy_rd=1.00:0.05 / mixed_ref=1 / me_range=32 / chroma_me=1 / trellis=2 / 8x8dct=1 / cqm=0 / deadzone=21,11 / fast_pskip=0 / chroma_qp_offset=-2 / threads=18 / lookahead_threads=1 / sliced_threads=0 / nr=0 / decimate=1 / interlaced=0 / bluray_compat=0 / constrained_intra=0 / bframes=4 / b_pyramid=2 / b_adapt=2 / b_bias=0 / direct=3 / weightb=1 / open_gop=0 / weightp=2 / keyint=250 / keyint_min=23 / scenecut=40 / intra_refresh=0 / rc=2pass / mbtree=0 / bitrate=9483 / ratetol=1.0 / qcomp=0.70 / qpmin=0 / qpmax=69 / qpstep=4 / cplxblur=20.0 / qblur=0.5 / ip_ratio=1.40 / pb_ratio=1.30 / aq=2:1.00
Language : English
Default : No
Forced : No
Audio #1
ID : 2
Format : AC-3
Format/Info : Audio Coding 3
Mode extension : CM (complete main)
Format settings, Endianness : Big
Codec ID : A_AC3
Duration : 2h 3mn
Bit rate mode : Constant
Bit rate : 384 Kbps
Channel(s) : 6 channels
Channel positions : Front: L C R, Side: L R, LFE
Sampling rate : 48.0 KHz
Bit depth : 16 bits
Compression mode : Lossy
Stream size : 338 MiB (3%)
Title : Dub iTunes | AC3 DD 5.1 @ 384 kbps
Language : Russian
Default : Yes
Forced : Yes
Audio #2
ID : 3
Format : DTS
Format/Info : Digital Theater Systems
Mode : 16
Format settings, Endianness : Big
Codec ID : A_DTS
Duration : 2h 3mn
Bit rate mode : Constant
Bit rate : 1 509 Kbps
Channel(s) : 6 channels
Channel positions : Front: L C R, Side: L R, LFE
Sampling rate : 48.0 KHz
Bit depth : 24 bits
Compression mode : Lossy
Stream size : 1.30 GiB (13%)
Title : Original | DTS DD 5.1 @ 1509 kbps
Language : English
Default : No
Forced : No
Text #1
ID : 4
Format : UTF-8
Codec ID : S_TEXT/UTF8
Codec ID/Info : UTF-8 Plain Text
Title : #4 - Rus Full (i)
Language : Russian
Default : Yes
Forced : No
Text #2
ID : 5
Format : UTF-8
Codec ID : S_TEXT/UTF8
Codec ID/Info : UTF-8 Plain Text
Title : #1 - English Full (i)
Language : English
Default : No
Forced : No
Text #3
ID : 6
Format : UTF-8
Codec ID : S_TEXT/UTF8
Codec ID/Info : UTF-8 Plain Text
Title : #3 - English SDH (i)
Language : English
Default : No
Forced : No
Text #4
ID : 7
Format : UTF-8
Codec ID : S_TEXT/UTF8
Codec ID/Info : UTF-8 Plain Text
Title : #4 - English SDH-Colored (i)
Language : English
Default : No
Forced : No
Menu
00:00:00.000 : en:00:00:00.000
00:09:22.562 : en:00:09:22.562
00:19:03.225 : en:00:19:03.225
00:30:25.532 : en:00:30:25.532
00:39:10.098 : en:00:39:10.098
00:49:43.439 : en:00:49:43.439
00:59:27.189 : en:00:59:27.189
01:09:50.186 : en:01:09:50.186
01:19:11.246 : en:01:19:11.246
01:29:57.267 : en:01:29:57.267
01:40:14.759 : en:01:40:14.759
01:52:14.728 : en:01:52:14.728
01:56:10.088 : en:01:56:10.088

Скриншоты




Создавать темы 14-Сен-2014 09:18

[Профиль]  [ЛС] 
Показать сообщения:    
Ответить на тему

Текущее время: 23-Окт 16:27

Часовой пояс: UTC + 5



Вы не можете начинать темы
Вы не можете отвечать на сообщения
Вы не можете редактировать свои сообщения
Вы не можете удалять свои сообщения
Вы не можете голосовать в опросах
Вы не можете прикреплять файлы к сообщениям
Вы не можете скачивать файлы