Малефисента / Maleficent (Роберт Стромберг / Robert Stromberg) [2014, США, Великобритания, Фэнтези, приключения, семейный, экранизация, ремейк, 3D HalfSBS, BDRip 1080p] Dub [Лицензия] + Original Eng + Sub rus, eng

Ответить на тему
 

yusuf.0088 ®

Стаж: 4 года

Сообщений: 116

Симпатии: 69

Малефисента / Maleficent
«Не верьте сказкам»
-- Год выпуска: 2014
Страна: США, Великобритания
Жанр: Фэнтези, приключения, семейный, экранизация, ремейк
Продолжительность: 01:37:28--Перевод: Профессиональный (полное дублирование) [Лицензия]
Оригинальная дорожка: Английский
Cубтитры: Русскиe, aнглийскиe--Режиссер: Роберт Стромберг / Robert Stromberg--В ролях: Анджелина Джоли, Элль Фэннинг, Шарлто Копли, Сэм Райли, Имелда Стонтон, Джуно Темпл, Лесли Мэнвилл, Брентон Туэйтес, Кеннет Крэнэм, Изобель Моллой--Описание: Юная волшебница Малефисента вела уединенную жизнь в зачарованном лесу, окруженная сказочными существами, но однажды все изменилось… В её мир вторглись люди, которые принесли с собой разрушение и хаос, и Малефисенте пришлось встать на защиту своих подданных, призвав на помощь могущественные тёмные силы. В пылу борьбы Малефисента наложила страшное заклятие на новорожденную дочь короля, прекрасную Аврору. Но, наблюдая за тем, как растет маленькая принцесса, Малефисента начинает сомневаться в правильности своего поступка — ведь, возможно, именно Аврора может вдохнуть новую жизнь в волшебное лесное царство. Экранизация произведения Элизабет Рудник "Малефисента. История истинной любви".-- --Качество: BDRip 1080p
Формат 3D: Горизонтальная анаморфная стереопара
Формат: MKV--Видео: MPEG-4 AVC / 12100 Кбит/с, 1920x800
Аудио 1: Русский AC3 6 ch / 640 Кбит/с / 48КГц |Дубляж|
Аудио 2: Английский DTS 6 ch / 1509 Кбит/с / 48КГц |Original|

Media Info

Формат : Matroska
Версия формата : Version 4 / Version 2
Размер файла : 9,92 Гбайт
Продолжительность : 1 ч. 37 м.
Общий поток : 14,6 Мбит/сек
Дата кодирования : UTC 2014-09-12 20:01:50
Программа кодирования : mkvmerge v6.9.1 ('Blue Panther') 64bit built on Apr 18 2014 18:23:38
Библиотека кодирования : libebml v1.3.0 + libmatroska v1.4.1
Видео
Идентификатор : 1
Формат : AVC
Формат/Информация : Advanced Video Codec
Профиль формата : [email protected]
Параметр CABAC формата : Да
Параметр ReFrames формата : 4 кадра
Параметр GOP формата : M=8, N=9
Идентификатор кодека : V_MPEG4/ISO/AVC
Продолжительность : 1 ч. 37 м.
Битрейт : 12,1 Мбит/сек
Ширина : 1920 пикселей
Высота : 1080 пикселей
Соотношение сторон : 16:9
Режим частоты кадров : Постоянный
Частота кадров : 23,976 кадра/сек
Цветовое пространство : YUV
Субдискретизация насыщенности : 4:2:0
Битовая глубина : 8 бит
Тип развёртки : Прогрессивная
Бит/(Пиксели*Кадры) : 0.244
Размер потока : 8,26 Гбайт (83%)
Библиотека кодирования : x264 core 133 r2334 a3ac64b
Настройки программы : cabac=1 / ref=4 / deblock=1:-3:-3 / analyse=0x3:0x133 / me=umh / subme=10 / psy=1 / psy_rd=0.95:0.00 / mixed_ref=1 / me_range=24 / chroma_me=1 / trellis=2 / 8x8dct=1 / cqm=0 / deadzone=21,11 / fast_pskip=0 / chroma_qp_offset=-2 / threads=6 / lookahead_threads=1 / sliced_threads=0 / nr=0 / decimate=1 / interlaced=0 / bluray_compat=0 / constrained_intra=0 / bframes=8 / b_pyramid=2 / b_adapt=2 / b_bias=0 / direct=3 / weightb=1 / open_gop=0 / weightp=2 / keyint=9 / keyint_min=1 / scenecut=40 / intra_refresh=0 / rc_lookahead=17 / rc=crf / mbtree=0 / crf=16.3 / qcomp=0.60 / qpmin=0 / qpmax=69 / qpstep=4 / vbv_maxrate=40000 / vbv_bufsize=30000 / crf_max=0.0 / nal_hrd=none / ip_ratio=1.40 / pb_ratio=1.30 / aq=1:0.75
Язык : English
Default : Нет
Forced : Нет
Аудио #1
Идентификатор : 2
Формат : AC-3
Формат/Информация : Audio Coding 3
Расширение режима : CM (complete main)
Параметр Endianness формата : Big
Идентификатор кодека : A_AC3
Продолжительность : 1 ч. 37 м.
Вид битрейта : Постоянный
Битрейт : 640 Кбит/сек
Каналы : 6 каналов
Расположение каналов : Front: L C R, Side: L R, LFE
Частота : 48,0 КГц
Битовая глубина : 16 бит
Метод сжатия : С потерями
Размер потока : 446 Мбайт (4%)
Язык : Russian
Default : Да
Forced : Нет
Аудио #2
Идентификатор : 3
Формат : DTS
Формат/Информация : Digital Theater Systems
Режим : 16
Параметр Endianness формата : Big
Идентификатор кодека : A_DTS
Продолжительность : 1 ч. 37 м.
Вид битрейта : Постоянный
Битрейт : 1509 Кбит/сек
Каналы : 6 каналов
Расположение каналов : Front: L C R, Side: L R, LFE
Частота : 48,0 КГц
Битовая глубина : 24 бит
Метод сжатия : С потерями
Размер потока : 1,03 Гбайт (10%)
Язык : English
Default : Нет
Forced : Нет
Текст #1
Идентификатор : 4
Формат : UTF-8
Идентификатор кодека : S_TEXT/UTF8
Идентификатор кодека/Информация : UTF-8 Plain Text
Язык : Romanian
Default : Нет
Forced : Нет
Текст #2
Идентификатор : 5
Формат : UTF-8
Идентификатор кодека : S_TEXT/UTF8
Идентификатор кодека/Информация : UTF-8 Plain Text
Заголовок : Full
Язык : Russian
Default : Нет
Forced : Нет
Текст #3
Идентификатор : 6
Формат : UTF-8
Идентификатор кодека : S_TEXT/UTF8
Идентификатор кодека/Информация : UTF-8 Plain Text
Заголовок : Full
Язык : English
Default : Нет
Forced : Нет
Меню
00:00:00.000 : en:00:00:00.000
00:03:00.597 : en:00:03:00.597
00:08:10.949 : en:00:08:10.949
00:14:00.757 : en:00:14:00.757
00:19:10.608 : en:00:19:10.608
00:25:59.057 : en:00:25:59.057
00:33:09.738 : en:00:33:09.738
00:38:30.808 : en:00:38:30.808
00:43:21.140 : en:00:43:21.140
00:46:56.105 : en:00:46:56.105
00:51:11.944 : en:00:51:11.944
00:54:18.797 : en:00:54:18.797
00:58:37.723 : en:00:58:37.723
01:01:58.048 : en:01:01:58.048
01:05:09.989 : en:01:05:09.989
01:09:56.776 : en:01:09:56.776
01:15:40.619 : en:01:15:40.619
01:17:43.659 : en:01:17:43.659
01:25:44.931 : en:01:25:44.931
01:28:38.647 : en:01:28:38.647

Скриншоты

Создавать темы 14-Сен-2014 09:51

[Профиль]  [ЛС] 

dimabek

Стаж: 6 лет 9 месяцев

Сообщений: 87

Симпатии: 13

На списке файлов написано Maleficent.2014.3D.BDRip.1080p.Half-SBS.mkv 1.91 GB (2057558239)

Создавать темы 15-Сен-2014 13:01

[Профиль]  [ЛС] 

dimabek

Стаж: 6 лет 9 месяцев

Сообщений: 87

Симпатии: 13

1.91 GB

Создавать темы 15-Сен-2014 13:03

[Профиль]  [ЛС] 

leontiy

Стаж: 5 лет 9 месяцев

Сообщений: 13

Симпатии: 1

че до меня скорость скачки не доходит?

Создавать темы 15-Сен-2014 18:11

[Профиль]  [ЛС] 

morozko

Стаж: 6 лет 9 месяцев

Сообщений: 83

Симпатии: 17

надо же как оперативно!

Создавать темы 15-Сен-2014 21:03

[Профиль]  [ЛС] 

Anastasiyaa

Стаж: 5 лет 5 месяцев

Сообщений: 12

Симпатии: 1

Реальный размер какой?

Создавать темы 23-Сен-2014 16:27

[Профиль]  [ЛС] 

Legogo

Стаж: 4 года 8 месяцев

Сообщений: 8

Симпатии: 1

Ребята дайте скачать фильм, хоть по чуть чуть раздавайте плиз

Создавать темы 11-Дек-2014 00:21

[Профиль]  [ЛС] 

akmstudio

Стаж: 7 лет 9 месяцев

Сообщений: 38

Симпатии: 31

877996Реальный размер какой?
10.6 GB

Создавать темы 11-Мар-2015 17:20

[Профиль]  [ЛС] 

totsamiy

Стаж: 5 лет 4 месяца

Сообщений: 145

Симпатии: 22

уже месяц качаю, плиз вернитесь те кто уже скачал, дайте докачать..... (((

Создавать темы 18-Мар-2015 17:31

[Профиль]  [ЛС] 

ekobana

Стаж: 5 лет 1 месяц

Сообщений: 26

Симпатии: 14

больше месяца качаю, закачка даже не идет. что за !!!

Создавать темы 07-Май-2015 21:57

[Профиль]  [ЛС] 

greensniper

Стаж: 2 года 5 месяцев

Сообщений: 16

Симпатии: 10

закачка остановилась на 95 проценте... 500 мб не хватает

Создавать темы 05-Июн-2015 12:04

[Профиль]  [ЛС] 
Показать сообщения:    
Ответить на тему

Текущее время: 18-Окт 01:48

Часовой пояс: UTC + 5



Вы не можете начинать темы
Вы не можете отвечать на сообщения
Вы не можете редактировать свои сообщения
Вы не можете удалять свои сообщения
Вы не можете голосовать в опросах
Вы не можете прикреплять файлы к сообщениям
Вы не можете скачивать файлы