Грань будущего / Edge of Tomorrow (Даг Лайман / Doug Liman) [2014, США, Фантастика, боевик, WEB-DL 1080p] Dub [iTunes] + Original Eng

Ответить на тему
 

yusuf.0088 ®

Стаж: 3 года 10 месяцев

Сообщений: 116

Симпатии: 69

Грань будущего / Edge of Tomorrow
«Живи. Умри. И снова»
-- Год выпуска: 2014
Страна: США
Жанр: Фантастика, боевик
Продолжительность: 02:11:09--Перевод: Профессиональный (полное дублирование) [iTunes]
Оригинальная дорожка: Английский
Cубтитры: нет--Режиссер: Даг Лайман / Doug Liman--В ролях: Том Круз, Эмили Блант, Билл Пэкстон, Лара Пулвер, Джереми Пивен, Шарлотта Райли, Джонас Армстронг, Мадлен Манток, Марианн Жан-Батист, Ли Асквит-Коу--Описание: «День сурка» в антураже «Звездного десанта», высадка в Нормандии встречает инопланетный Армагеддон — так вкратце можно охарактеризовать суть фильма. История разворачивается в недалеком будущем, когда похожая на рой раса инопланетян, названных мимиками, совершает безжалостное нападение на Землю, стерев в пыль крупные города и уничтожив миллионы жизней. Армии Земли объединят силы, чтобы вступить в последний бой с полчищами инопланетян, зная, что второго шанса у них не будет. Подполковник Билл Кейдж — ни разу не был на поле битвы, пока его не бросили в самую гущу боя неподготовленного и плохо снаряженного, фактически обрекая на смерть. Через считанные минуты Кейджа убивают, но он захватывает с собой и жизнь пришельца. И случается невозможное — он просыпается живым в начале того же адского дня, и вынужден сражаться и умирать… снова и снова. Прямой физический контакт с пришельцем замкнул временную петлю, и теперь Кейдж вновь и вновь идет в тот же бой. Но с каждым возвращением Кейдж становится более жестоким и умным в битве с мимиками, сражаясь бок о бок с бойцом спецназа Ритой Вратаски, уничтожившей больше мимиков, чем кто бы то ни было еще на Земле. Рита и Кейдж раз за разом дают бой пришельцам, и каждое повторяющееся сражение приближает их к разгадке того, как убить инопланетных захватчиков и спасти планету.-- --Качество: WEB-DL (1080p)
Формат: mkv--Видео: MPEG-4 AVC / 4936 Кбит/с, 1916x796
Аудио 1: Русский AC3 6 ch / 384 Кбит/с / 48КГц |Дубляж|
Аудио 2: Английский AC3 6 ch / 384 Кбит/с / 48КГц |Original|

Media Info

Формат : Matroska
Версия формата : Version 4 / Version 2
Размер файла : 3,81 Гбайт
Продолжительность : 1 ч. 53 м.
Общий поток : 4813 Кбит/сек
Дата кодирования : UTC 2014-09-11 06:16:21
Программа кодирования : mkvmerge v6.0.0 ('Coming Up For Air') built on Jan 20 2013 09:52:00
Библиотека кодирования : libebml v1.3.0 + libmatroska v1.4.0
Видео
Идентификатор : 1
Формат : AVC
Формат/Информация : Advanced Video Codec
Профиль формата : [email protected]
Параметр CABAC формата : Да
Параметр ReFrames формата : 5 кадров
Идентификатор кодека : V_MPEG4/ISO/AVC
Продолжительность : 1 ч. 53 м.
Битрейт : 3950 Кбит/сек
Ширина : 1916 пикселей
Высота : 796 пикселей
Соотношение сторон : 2,40:1
Режим частоты кадров : Постоянный
Частота кадров : 23,976 кадра/сек
Цветовое пространство : YUV
Субдискретизация насыщенности : 4:2:0
Битовая глубина : 8 бит
Тип развёртки : Прогрессивная
Бит/(Пиксели*Кадры) : 0.108
Размер потока : 3,13 Гбайт (82%)
Язык : English
Default : Да
Forced : Нет
Основные цвета : BT.709
Характеристики трансфера : BT.709
Коэффициенты матрицы : BT.709
Аудио #1
Идентификатор : 2
Формат : AC-3
Формат/Информация : Audio Coding 3
Расширение режима : CM (complete main)
Параметр Endianness формата : Big
Идентификатор кодека : A_AC3
Продолжительность : 1 ч. 53 м.
Вид битрейта : Постоянный
Битрейт : 384 Кбит/сек
Каналы : 6 каналов
Расположение каналов : Front: L C R, Side: L R, LFE
Частота : 48,0 КГц
Битовая глубина : 16 бит
Метод сжатия : С потерями
Размер потока : 312 Мбайт (8%)
Язык : Russian
Default : Да
Forced : Нет
Аудио #2
Идентификатор : 3
Формат : AC-3
Формат/Информация : Audio Coding 3
Расширение режима : CM (complete main)
Параметр Endianness формата : Big
Идентификатор кодека : A_AC3
Продолжительность : 1 ч. 53 м.
Вид битрейта : Постоянный
Битрейт : 384 Кбит/сек
Каналы : 6 каналов
Расположение каналов : Front: L C R, Side: L R, LFE
Частота : 48,0 КГц
Битовая глубина : 16 бит
Метод сжатия : С потерями
Размер потока : 312 Мбайт (8%)
Язык : English
Default : Нет
Forced : Нет
Меню
00:00:00.000 : en:1.
00:10:25.000 : en:2.
00:17:36.000 : en:3.
00:24:46.000 : en:4.
00:35:53.000 : en:5.
00:46:22.000 : en:6.
00:54:29.000 : en:7.
01:04:53.000 : en:8.
01:12:46.000 : en:9.
01:23:01.000 : en:10.
01:32:26.000 : en:11.
01:42:45.000 : en:12.
01:45:37.000 : en:13.

Скриншоты

Создавать темы 14-Сен-2014 10:08

[Профиль]  [ЛС] 

beeschunmo

Стаж: 3 года 8 месяцев

Сообщений: 143

Симпатии: 11

iTunes лучше или чистый звук?

Создавать темы 23-Сен-2014 12:21

[Профиль]  [ЛС] 

yusuf.0088 ®

Стаж: 3 года 10 месяцев

Сообщений: 116

Симпатии: 69

iTunes конечно

Создавать темы 23-Сен-2014 13:58

[Профиль]  [ЛС] 

Shock

Стаж: 6 лет 9 месяцев

Сообщений: 85

Симпатии: 1

давно такого круто фильма шутера не смотрел

Создавать темы 11-Окт-2014 08:56

[Профиль]  [ЛС] 
Показать сообщения:    
Ответить на тему

Текущее время: 23-Авг 07:32

Часовой пояс: UTC + 5



Вы не можете начинать темы
Вы не можете отвечать на сообщения
Вы не можете редактировать свои сообщения
Вы не можете удалять свои сообщения
Вы не можете голосовать в опросах
Вы не можете прикреплять файлы к сообщениям
Вы не можете скачивать файлы