Годзилла 3Д / Godzilla 3D (Гарет Эдвардс / Gareth Edwards) [2014, США, Фантастика, боевик, приключения, 3D HalfSBS, BDRip 1080p Dub [iTunes] + Original Eng + Sub Eng

Ответить на тему
 

yusuf.0088 ®

Стаж: 4 года

Сообщений: 116

Симпатии: 69

Годзилла 3Д / Godzilla 3D
«The king will rise»
-- Год выпуска: 2014
Страна: США
Жанр: Фантастика, фэнтези, боевик, приключения
Продолжительность: 02:03:07--Перевод: Профессиональный (полное дублирование) [iTunes]
Оригинальная дорожка: английский
Cубтитры: английские--Режиссер: Гарет Эдвардс / Gareth Edwards--В ролях: Аарон Тейлор-Джонсон, Кен Ватанабе, Элизабет Олсен, Жюльетт Бинош, Салли Хокинс, Дэвид Стрэтэйрн, Брайан Крэнстон, С.Дж. Адамс, Карсон Болд, Ричард Т. Джонс--Описание: Человечество случайно разбудило гигантское древнее существо, что повлекло за собой ужасающие последствия…-- --Качество: BDRip 1080p
Формат 3D: Горизонтальная анаморфная стереопара
Контейнер: MKV--Видео: MPEG-4 AVC / 8211 Кбит/с, 1920x1080
Аудио 1: Русский AC3 6 ch / 384 Кбит/с / 48КГц |Дубляж|
Аудио 2: Английский / DTS 6 ch / 48 KHz / 1536 Кбит/с |Original|
Сохранены оригинальные чаптеры как на Blu-Ray

MediaInfo

Формат : Matroska
Версия формата : Version 4 / Version 2
Размер файла : 8,90 Гбайт
Продолжительность : 2 ч. 3 м.
Общий поток : 10,3 Мбит/сек
Дата кодирования : UTC 2014-09-09 19:46:37
Программа кодирования : mkvmerge v6.0.0 ('Coming Up For Air') built on Jan 20 2013 09:52:00
Библиотека кодирования : libebml v1.3.0 + libmatroska v1.4.0
Attachment : Yes
Видео
Идентификатор : 1
Формат : AVC
Формат/Информация : Advanced Video Codec
Профиль формата : [email protected]
MultiView_Count : 2
MultiView_Layout : Side by Side (left eye first)
Параметр CABAC формата : Да
Параметр ReFrames формата : 4 кадра
Идентификатор кодека : V_MPEG4/ISO/AVC
Продолжительность : 2 ч. 3 м.
Битрейт : 8251 Кбит/сек
Ширина : 1920 пикселей
Высота : 1080 пикселей
Соотношение сторон : 16:9
Режим частоты кадров : Постоянный
Частота кадров : 23,976 кадра/сек
Цветовое пространство : YUV
Субдискретизация насыщенности : 4:2:0
Битовая глубина : 8 бит
Тип развёртки : Прогрессивная
Бит/(Пиксели*Кадры) : 0.166
Размер потока : 7,10 Гбайт (80%)
Заголовок : Годзилла-Godzilla.(2014).BDRip.[1080p].3D
Библиотека кодирования : x264 core 142 r2389 956c8d8
Настройки программы : cabac=1 / ref=4 / deblock=1:-3:-3 / analyse=0x3:0x113 / me=umh / subme=10 / psy=1 / psy_rd=1.00:0.00 / mixed_ref=1 / me_range=32 / chroma_me=1 / trellis=2 / 8x8dct=1 / cqm=0 / deadzone=21,11 / fast_pskip=0 / chroma_qp_offset=-4 / threads=6 / lookahead_threads=1 / sliced_threads=0 / nr=0 / decimate=0 / interlaced=0 / bluray_compat=0 / constrained_intra=0 / bframes=6 / b_pyramid=2 / b_adapt=2 / b_bias=0 / direct=3 / weightb=1 / open_gop=0 / weightp=2 / keyint=250 / keyint_min=23 / scenecut=40 / intra_refresh=0 / rc=crf / mbtree=0 / crf=17.0 / qcomp=0.80 / qpmin=0 / qpmax=69 / qpstep=4 / frame-packing=3 / ip_ratio=1.30 / pb_ratio=1.30 / aq=2:0.90
Язык : English
Default : Да
Forced : Нет
Аудио #1
Идентификатор : 2
Формат : AC-3
Формат/Информация : Audio Coding 3
Расширение режима : CM (complete main)
Параметр Endianness формата : Big
Идентификатор кодека : A_AC3
Продолжительность : 2 ч. 3 м.
Вид битрейта : Постоянный
Битрейт : 384 Кбит/сек
Каналы : 6 каналов
Расположение каналов : Front: L C R, Side: L R, LFE
Частота : 48,0 КГц
Битовая глубина : 16 бит
Метод сжатия : С потерями
Размер потока : 338 Мбайт (4%)
Язык : Russian
Default : Да
Forced : Нет
Аудио #2
Идентификатор : 3
Формат : DTS
Формат/Информация : Digital Theater Systems
Режим : 16
Параметр Endianness формата : Big
Идентификатор кодека : A_DTS
Продолжительность : 2 ч. 3 м.
Вид битрейта : Постоянный
Битрейт : 1509 Кбит/сек
Каналы : 6 каналов
Расположение каналов : Front: L C R, Side: L R, LFE
Частота : 48,0 КГц
Битовая глубина : 24 бит
Метод сжатия : С потерями
Размер потока : 1,30 Гбайт (15%)
Заголовок : DTS 5.1 / 1536 kbps / Original
Язык : English
Default : Нет
Forced : Нет
Текст #1
Идентификатор : 4
Формат : UTF-8
Идентификатор кодека : S_TEXT/UTF8
Идентификатор кодека/Информация : UTF-8 Plain Text
Заголовок : Full
Язык : English
Default : Нет
Forced : Нет
Текст #2
Идентификатор : 5
Формат : UTF-8
Идентификатор кодека : S_TEXT/UTF8
Идентификатор кодека/Информация : UTF-8 Plain Text
Заголовок : SDH
Язык : English
Default : Нет
Forced : Нет
Текст #3
Идентификатор : 6
Формат : UTF-8
Идентификатор кодека : S_TEXT/UTF8
Идентификатор кодека/Информация : UTF-8 Plain Text
Заголовок : SDH (Colored)
Язык : English
Default : Нет
Forced : Нет
Меню
00:00:00.000 : en:00:00:00.000
00:09:22.562 : en:00:09:22.562
00:19:03.225 : en:00:19:03.225
00:30:25.532 : en:00:30:25.532
00:39:10.098 : en:00:39:10.098
00:49:43.439 : en:00:49:43.439
00:59:27.189 : en:00:59:27.189
01:09:50.186 : en:01:09:50.186
01:19:11.246 : en:01:19:11.246
01:29:57.267 : en:01:29:57.267
01:40:14.759 : en:01:40:14.759
01:52:14.728 : en:01:52:14.728
01:56:10.088 : en:01:56:10.088

Скриншоты



Последний раз редактировалось: yusuf.0088 (2014-09-15 08:10), всего редактировалось 1 раз

Создавать темы 14-Сен-2014 10:21

[Профиль]  [ЛС] 

DooM

Стаж: 6 лет

Сообщений: 809

Симпатии: 30

Даже время тратить на этот СЕРИАЛ я не стану. Одна болтовня. Я ожидал большего.

Создавать темы 14-Сен-2014 10:59

[Профиль]  [ЛС] 

Иви

Стаж: 5 лет 9 месяцев

Сообщений: 688

Симпатии: 65

yusuf.0088, скриншоты залейте

Создавать темы 14-Сен-2014 14:03

[Профиль]  [ЛС] 

djm3

Стаж: 6 лет 9 месяцев

Сообщений: 55

Симпатии: 7

    874852Размер: 8.9 GB
    874852Годзилла-Godzilla.(2014).BDRip.[1080p].3D.mkv 921.98 MB (966768139)

как это понять сперва 8.9 GB а тут же внизу 921.98 MB

Создавать темы 21-Окт-2014 14:28

[Профиль]  [ЛС] 
Показать сообщения:    
Ответить на тему

Текущее время: 24-Окт 00:09

Часовой пояс: UTC + 5



Вы не можете начинать темы
Вы не можете отвечать на сообщения
Вы не можете редактировать свои сообщения
Вы не можете удалять свои сообщения
Вы не можете голосовать в опросах
Вы не можете прикреплять файлы к сообщениям
Вы не можете скачивать файлы