Казино / Casino (Мартин Скорсезе / Martin Scorsese) [1995, США, Франция, драма, криминал, биография, BDRip, HD (1080p)] DVO, AVO, Original + sub (rus, eng)

Ответить на тему
 

doter ®

Стаж: 7 лет 9 месяцев

Сообщений: 32

Симпатии: 25

Казино / Casino«Риск. Власть. Искушение.» Top250 #146 8.2 / 10 | 8.3 / 10 | R- Год выпуска: 1995
Страна: США, Франция
Студия: Universal Pictures
Жанр: драма, криминал, биография
Продолжительность: 02:58
Перевод: Профессиональный двухголосый перевод, Авторский одноголосый перевод
Субтитры: Русские полные, английские полные
Навигация: По главам
Режиссёр: Мартин Скорсезе
Сценарий: Николас Пиледжи, Мартин Скорсезе
Продюсер: Барбара Де Фина, Джозеф П. Рейди
В ролях: Роберт Де Ниро, Шэрон Стоун, Джо Пеши, Джеймс Вудс, Фрэнк Винсент, Паскуале Кайано, Кевин Поллак, Дон Риклз, Винни Велла, Алан Кинг-Описание: Никто не может сравниться с Сэмом Ротстином. Никто не умеет зарабатывать деньги, как он. Никто не умеет работать так самоотверженно и аккуратно, как трудяга Сэм. За свои неоспоримые достоинства Ротстин получил кличку «Ас». И именно поэтому боссы мафии решили отправить Аса заправлять огромным шикарным казино в Лас-Вегасе. А чтобы Сэму никто не мешал работать, мафиози отправили вслед за Асом друга детства Ротстина — Никки Санторо, отпетого бандита и безжалостного головореза.
В Лас-Вегасе Ас как всегда с блеском выполнял свою работу: Казино процветало, водопад денег беспрестанно лился в карманы довольных гангстеров-покровителей. Городские заправилы находились на довольствии у мафии, полицейские и суды были куплены, и, казалось ничто не может омрачить жизнь Аса. Но Господь распорядился иначе. Несокрушимой империи Сэма было суждено утонуть в трагедии и крови.-Качество исходника: BDRemux (HDClub)
Качество: BDRip
Контейнер: M4V
Видео 1080p : 1920x816 at 23.976 fps, MPEG-4 AVC, ~13800 kbps avg
Аудио №1: Stereo RUS (1080p - 160 kbps)/Двухголосый закадровый, BD-CEE
Аудио №2: Stereo RUS (1080p - 160 kbps)/Одноголосый авторский, С.Визгунов
Аудио №3: Stereo RUS (1080p - 160 kbps)/Одноголосый авторский, А.Гаврилов
Аудио №4: Stereo RUS (1080p - 160 kbps)/Одноголосый авторский, Ю.Живов
Аудио №5: Stereo RUS (1080p - 160 kbps)/Одноголосый авторский, П.Карцев
Аудио №6: Stereo RUS (1080p - 160 kbps)/Одноголосый авторский, Д.Штамп
Аудио №7: Stereo ENG (1080p - 160 kbps)/Оригинал
Аудио №8: AC-3 RUS (1080p - 640 kbps)/Двухголосый закадровый, BD-CEE
Аудио №9: AC-3 ENG (1080p - 640 kbps)/Оригинал
Субтитры №1: Russian Full
Субтитры №2: English Full-MediaInfo 1080p
Формат : MPEG-4Идентификатор кодека : M4VРазмер файла : 20,2 ГбайтПродолжительность : 2 ч. 58 м.Режим общего битрейта : ПеременныйОбщий поток : 16,2 Мбит/секНазвание фильма : CasinoИсполнитель : Martin ScorseseЖанр : DramaДата записи : 1995-11-22T08:00:00ZДата кодирования : UTC 2013-02-12 20:52:00Дата пометки : UTC 2013-02-13 03:57:06Правообладатель : © 2008 Universal Studios. All Rights Reserved.Обложка : Yessonm : Casinodesc : Никто не может сравниться с Сэмом Ротстином. Никто не умеет зарабатывать деньги, как он. Никто не умеет работать так самоотверженно и аккуратно, как трудяга Сэм. За свои неоспоримые достоинства Ротстин получил кличку «Ас».ldes : Никто не может сравниться с Сэмом Ротстином. Никто не умеет зарабатывать деньги, как он. Никто не умеет работать так самоотверженно и аккуратно, как трудяга Сэм. За свои неоспоримые достоинства Ротстин получил кличку «Ас». И именно поэтому боссы мафии решили отправить Аса заправлять огромным шикарным казино в Лас-Вегасе. А чтобы Сэму никто не мешал работать, мафиози отправили вслед за Асом друга детства Ротстина — Никки Санторо, отпетого бандита и безжалостного головореза. / В Лас-Вегасе Ас как всегда с блеском выполнял свою работу: Казино процветало, водопад денег беспрестанно лился в карманы довольных гангстеров-покровителей. Городские заправилы находились на довольствии у мафии, полицейские и суды были куплены, и, казалось ничто не может омрачить жизнь Аса. Но Господь распорядился иначе. Несокрушимой империи Сэма было суждено утонуть в трагедии и крови.hdvd : 2stik : 9rtng : 0cnID : 279832976xid : Apple:vendor_id:1995-2494iTunEXTC : mpaa|R|400|iTunMOVI : / / / / cast / / / name / Роберт Де Ниро / / / name / Шэрон Стоун / / / name / Джо Пеши / / / name / Джеймс Вудс / / / name / Фрэнк Винсент / / / name / Паскуале Кайано / / / name / Кевин Поллак / / / name / Дон Риклз / / / name / Винни Велла / / / name / Алан Кинг / / / directors / / / name / Мартин Скорсезе / / / producers / / / name / Барбара Де Фина / / / name / Джозеф П. Рейди / / / screenwriters / / / name / Николас Пиледжи / / / name / Мартин Скорсезе / / / studio / Universal Pictures / /
Видео
Идентификатор : 1Формат : AVCФормат/Информация : Advanced Video CodecПрофиль формата : [email protected] CABAC формата : ДаПараметр ReFrames формата : 4 кадраИдентификатор кодека : avc1Идентификатор кодека/Информация : Advanced Video CodingПродолжительность : 2 ч. 58 м.Вид битрейта : ПеременныйБитрейт : 13,8 Мбит/секШирина : 1920 пикселейВысота : 816 пикселейСоотношение сторон : 2,35:1Режим частоты кадров : ПеременныйЧастота кадров : 23,976 кадра/секМинимальная частота кадров : 23,810 кадра/секМаксимальная частота кадров : 24,390 кадра/секЦветовое пространство : YUVСубдискретизация насыщенности : 4:2:0Битовая глубина : 8 битТип развёртки : ПрогрессивнаяБит/(Пиксели*Кадры) : 0.367Размер потока : 17,2 Гбайт (85%)Библиотека кодирования : x264 core 120Настройки программы : cabac=1 / ref=4 / deblock=1:-3:-3 / analyse=0x3:0x133 / me=umh / subme=10 / psy=1 / psy_rd=0.90:0.00 / mixed_ref=1 / me_range=32 / chroma_me=1 / trellis=2 / 8x8dct=1 / cqm=0 / deadzone=21,11 / fast_pskip=0 / chroma_qp_offset=-2 / threads=3 / sliced_threads=0 / nr=0 / decimate=0 / interlaced=0 / bluray_compat=0 / constrained_intra=0 / bframes=4 / b_pyramid=2 / b_adapt=2 / b_bias=0 / direct=3 / weightb=1 / open_gop=0 / weightp=2 / keyint=240 / keyint_min=24 / scenecut=40 / intra_refresh=0 / rc_lookahead=40 / rc=crf / mbtree=0 / crf=18.0 / qcomp=0.60 / qpmin=0 / qpmax=69 / qpstep=4 / vbv_maxrate=25000 / vbv_bufsize=25000 / crf_max=0.0 / nal_hrd=none / ip_ratio=1.40 / pb_ratio=1.30 / aq=1:1.00Язык : EnglishДата кодирования : UTC 2013-02-12 20:52:00Дата пометки : UTC 2013-02-12 21:15:21Основные цвета : BT.709Характеристики трансфера : BT.709Коэффициенты матрицы : BT.709
Аудио #1
Идентификатор : 2Формат : AACФормат/Информация : Advanced Audio CodecПрофиль формата : LCИдентификатор кодека : 40Продолжительность : 2 ч. 58 м.Вид битрейта : ПеременныйБитрейт : 164 Кбит/секМаксимальный битрейт : 234 Кбит/секКаналы : 2 каналаРасположение каналов : Front: L RЧастота : 48,0 КГцМетод сжатия : С потерямиЗадержка видео : 83 мс.Размер потока : 210 Мбайт (1%)Язык : RussianДата кодирования : UTC 2013-02-12 20:52:00Дата пометки : UTC 2013-02-12 20:53:21
Аудио #2
Идентификатор : 3Формат : AACФормат/Информация : Advanced Audio CodecПрофиль формата : LCИдентификатор кодека : 40Продолжительность : 2 ч. 58 м.Вид битрейта : ПеременныйБитрейт : 136 Кбит/секМаксимальный битрейт : 153 Кбит/секКаналы : 2 каналаРасположение каналов : Front: L RЧастота : 48,0 КГцМетод сжатия : С потерямиЗадержка видео : 83 мс.Размер потока : 174 Мбайт (1%)Язык : RussianДата кодирования : UTC 2013-02-12 20:52:00Дата пометки : UTC 2013-02-12 21:15:51
Аудио #3
Идентификатор : 4Формат : AACФормат/Информация : Advanced Audio CodecПрофиль формата : LCИдентификатор кодека : 40Продолжительность : 2 ч. 58 м.Вид битрейта : ПеременныйБитрейт : 163 Кбит/секМаксимальный битрейт : 269 Кбит/секКаналы : 2 каналаРасположение каналов : Front: L RЧастота : 48,0 КГцМетод сжатия : С потерямиЗадержка видео : 83 мс.Размер потока : 208 Мбайт (1%)Язык : RussianДата кодирования : UTC 2013-02-12 20:52:01Дата пометки : UTC 2013-02-12 21:16:25
Аудио #4
Идентификатор : 5Формат : AACФормат/Информация : Advanced Audio CodecПрофиль формата : LCИдентификатор кодека : 40Продолжительность : 2 ч. 58 м.Вид битрейта : ПеременныйБитрейт : 162 Кбит/секМаксимальный битрейт : 272 Кбит/секКаналы : 2 каналаРасположение каналов : Front: L RЧастота : 48,0 КГцМетод сжатия : С потерямиЗадержка видео : 83 мс.Размер потока : 207 Мбайт (1%)Язык : RussianДата кодирования : UTC 2013-02-12 20:52:01Дата пометки : UTC 2013-02-12 21:17:00
Аудио #5
Идентификатор : 6Формат : AACФормат/Информация : Advanced Audio CodecПрофиль формата : LCИдентификатор кодека : 40Продолжительность : 2 ч. 58 м.Вид битрейта : ПеременныйБитрейт : 160 Кбит/секМаксимальный битрейт : 267 Кбит/секКаналы : 2 каналаРасположение каналов : Front: L RЧастота : 48,0 КГцМетод сжатия : С потерямиЗадержка видео : 83 мс.Размер потока : 205 Мбайт (1%)Язык : RussianДата кодирования : UTC 2013-02-12 20:52:01Дата пометки : UTC 2013-02-12 21:17:34
Аудио #6
Идентификатор : 7Формат : AACФормат/Информация : Advanced Audio CodecПрофиль формата : LCИдентификатор кодека : 40Продолжительность : 2 ч. 58 м.Вид битрейта : ПеременныйБитрейт : 162 Кбит/секМаксимальный битрейт : 266 Кбит/секКаналы : 2 каналаРасположение каналов : Front: L RЧастота : 48,0 КГцМетод сжатия : С потерямиЗадержка видео : 83 мс.Размер потока : 207 Мбайт (1%)Язык : RussianДата кодирования : UTC 2013-02-12 20:52:01Дата пометки : UTC 2013-02-12 21:18:11
Аудио #7
Идентификатор : 8Формат : AACФормат/Информация : Advanced Audio CodecПрофиль формата : LCИдентификатор кодека : 40Продолжительность : 2 ч. 58 м.Вид битрейта : ПеременныйБитрейт : 164 Кбит/секМаксимальный битрейт : 261 Кбит/секКаналы : 2 каналаРасположение каналов : Front: L RЧастота : 48,0 КГцМетод сжатия : С потерямиЗадержка видео : 83 мс.Размер потока : 209 Мбайт (1%)Язык : EnglishДата кодирования : UTC 2013-02-12 20:52:01Дата пометки : UTC 2013-02-12 21:18:47
Аудио #8
Идентификатор : 9Формат : AC-3Формат/Информация : Audio Coding 3Расширение режима : CM (complete main)Параметр Endianness формата : BigИдентификатор кодека : ac-3Продолжительность : 2 ч. 58 м.Вид битрейта : ПостоянныйБитрейт : 640 Кбит/секКаналы : 6 каналовРасположение каналов : Front: L C R, Side: L R, LFEЧастота : 48,0 КГцБитовая глубина : 16 битМетод сжатия : С потерямиЗадержка видео : 83 мс.Размер потока : 817 Мбайт (4%)Язык : RussianДата кодирования : UTC 2013-02-12 20:52:01Дата пометки : UTC 2013-02-12 21:19:50
Аудио #9
Идентификатор : 10Формат : AC-3Формат/Информация : Audio Coding 3Расширение режима : CM (complete main)Параметр Endianness формата : BigИдентификатор кодека : ac-3Продолжительность : 2 ч. 58 м.Вид битрейта : ПостоянныйБитрейт : 640 Кбит/секКаналы : 6 каналовРасположение каналов : Front: L C R, Side: L R, LFEЧастота : 48,0 КГцБитовая глубина : 16 битМетод сжатия : С потерямиЗадержка видео : 83 мс.Размер потока : 817 Мбайт (4%)Язык : EnglishДата кодирования : UTC 2013-02-12 20:52:01Дата пометки : UTC 2013-02-12 21:20:51
Текст #1
Идентификатор : 11Формат : Timed textРежим смешивания : sbtlИдентификатор кодека : tx3gПродолжительность : 2 ч. 51 м.Вид битрейта : ПеременныйБитрейт : 210 бит/секЗадержка видео : 83 мс.Размер потока : 265 Кбайт (0%)Язык : RussianДата кодирования : UTC 2013-02-12 20:52:01Дата пометки : UTC 2013-02-12 21:35:53
Текст #2
Идентификатор : 12Формат : Timed textРежим смешивания : sbtlИдентификатор кодека : tx3gПродолжительность : 2 ч. 56 м.Вид битрейта : ПеременныйБитрейт : 112 бит/секЗадержка видео : 83 мс.Размер потока : 145 Кбайт (0%)Язык : EnglishДата кодирования : UTC 2013-02-12 20:52:01Дата пометки : UTC 2013-02-12 21:35:53
Текст #3
Идентификатор : 13Формат : Apple textИдентификатор кодека : textПродолжительность : 2 ч. 58 м.Вид битрейта : ПеременныйБитрейт : 0 бит/секЗадержка видео : 83 мс.Размер потока : 528 байт (0%)Язык : EnglishДата кодирования : UTC 2013-02-12 21:35:53Дата пометки : UTC 2013-02-12 21:35:53
Меню
00:00:00.000 : "When You Love Someone..."00:04:55.627 : The Truth About Las Vegas00:21:58.232 : Ginger00:27:49.584 : Nicky Comes to Town00:33:46.732 : Yokels00:38:57.168 : The Long Shot00:58:23.123 : Banned From Las Vegas01:06:11.300 : The New Boss of Las Vegas01:26:24.636 : Leakage01:31:49.753 : The Worst Possible Time02:00:29.512 : Ginger and the Lowlife02:14:10.375 : Nicky and Ginger02:28:31.568 : A Dangerous Situation02:39:55.793 : Everybody Began to Tumble...02:46:56.463 : Enough of Nicky02:58:20.147 : The Town Will Never Be the Same
x264 лог 1080p
x264 [info]: frame I:1963 Avg QP:16.85 size:165103 PSNR Mean Y:47.18 U:51.78 V:52.30 Avg:48.16 Global:47.53x264 [info]: frame P:62013 Avg QP:18.02 size:105303 PSNR Mean Y:46.19 U:52.23 V:52.81 Avg:47.29 Global:46.40x264 [info]: frame B:192571 Avg QP:20.06 size: 60146 PSNR Mean Y:44.12 U:50.91 V:51.68 Avg:45.34 Global:44.80x264 [info]: consecutive B-frames: 1.5% 1.7% 5.1% 50.0% 41.6%x264 [info]: mb I I16..4: 5.1% 85.1% 9.8%x264 [info]: mb P I16..4: 1.5% 38.5% 2.2% P16..4: 26.0% 19.3% 7.4% 0.5% 0.1% skip: 4.6%x264 [info]: mb B I16..4: 0.3% 5.7% 0.2% B16..8: 43.6% 17.4% 3.7% direct:15.6% skip:13.5% L0:40.4% L1:37.5% BI:22.0%x264 [info]: 8x8 transform intra:91.3% inter:51.1%x264 [info]: direct mvs spatial:100.0% temporal:0.0%x264 [info]: coded y,uvDC,uvAC intra: 95.8% 80.1% 45.4% inter: 61.3% 37.6% 5.9%x264 [info]: i16 v,h,dc,p: 42% 10% 12% 36%x264 [info]: i8 v,h,dc,ddl,ddr,vr,hd,vl,hu: 10% 8% 13% 10% 12% 12% 10% 12% 13%x264 [info]: i4 v,h,dc,ddl,ddr,vr,hd,vl,hu: 10% 7% 5% 10% 15% 15% 13% 12% 13%x264 [info]: i8c dc,h,v,p: 35% 26% 23% 16%x264 [info]: Weighted P-Frames: Y:4.8% UV:1.1%x264 [info]: ref P L0: 43.7% 11.2% 29.9% 14.3% 0.9% 0.0%x264 [info]: ref B L0: 83.6% 12.7% 3.8%x264 [info]: ref B L1: 90.8% 9.2%x264 [info]: SSIM Mean Y:0.9774565 (16.470db)x264 [info]: PSNR Mean Y:44.646 U:51.236 V:51.961 Avg:45.836 Global:45.154 kb/s:13784.16
Скриншоты 1080pДля просмотра данного релиза на компьютере с ОС Windows рекомендуется использовать VLC media player-

Создавать темы 15-Сен-2014 00:33

[Профиль]  [ЛС] 

Rayne

Стаж: 6 лет 4 месяца

Сообщений: 36

Симпатии: 2

жаль MVO нет

Создавать темы 15-Сен-2014 06:55

[Профиль]  [ЛС] 
Показать сообщения:    
Ответить на тему

Текущее время: 17-Авг 13:07

Часовой пояс: UTC + 5



Вы не можете начинать темы
Вы не можете отвечать на сообщения
Вы не можете редактировать свои сообщения
Вы не можете удалять свои сообщения
Вы не можете голосовать в опросах
Вы не можете прикреплять файлы к сообщениям
Вы не можете скачивать файлы