Невидимая женщина / The Invisible Woman (Рэйф Файнс / Ralph Fiennes) [2013, Великобритания, Драма, мелодрама, биография, HDRip] MVO (iTunes)

Ответить на тему
 

Zab ®

Стаж: 6 лет 3 месяца

Сообщений: 476

Симпатии: 424

Невидимая женщина / The Invisible Woman
-Год выпуска: 2013
Страна: Великобритания
Студия: BBC Films, Headline Pictures, Magnolia Mae Inc., Taeoo Entertainment
Жанр: Драма, мелодрама, биография
Продолжительность: 01:51:26
Перевод: Профессиональный (многоголосый закадровый) iTunes-Режиссер: Рэйф Файнс / Ralph Fiennes
В ролях: Рэйф Файнс, Фелисити Джонс, Кристин Скотт Томас, Том Холландер, Джон Кэвэна, Том Эттвуд, Сузанна Хислоп, Том Бёрк, Томми Кёрсон-Смит, Дэвид Коллингс-Описание: Фильм посвящен истории любви Чарльза Диккенса и молодой актрисы Эллен Тернан. Роман начался в 1857 году и продолжался 13 лет. Он стал причиной разрыва писателя с семьей и толкнул Диккенса записать имя возлюбленной в завещание, тем самым обеспечив ей безбедное существование до конца жизни.- -Тип релиза: HDRip
Контейнер: Xvid
Видео: 720x304 23.976fps 1362kbps
Аудио: Dolby AC3 48000Hz 6ch 384kbps

MediaInfo

General
Complete name                            : D:\[Movies]\The_Invisible_Woman_HDRip_1400MB.avi
Format                                   : AVI
Format/Info                              : Audio Video Interleave
File size                                : 1.37 GiB
Duration                                 : 1h 51mn
Overall bit rate                         : 1 756 Kbps
Writing application                      : VirtualDubMod 1.5.10.2 (build 2540/release)
Writing library                          : VirtualDubMod build 2540/release
Video
ID                                       : 0
Format                                   : MPEG-4 Visual
Format profile                           : Advanced [email protected]
Format settings, BVOP                    : 2
Format settings, QPel                    : No
Format settings, GMC                     : No warppoints
Format settings, Matrix                  : Default (MPEG)
Codec ID                                 : XVID
Codec ID/Hint                            : XviD
Duration                                 : 1h 51mn
Bit rate                                 : 1 363 Kbps
Width                                    : 720 pixels
Height                                   : 304 pixels
Display aspect ratio                     : 2.35:1
Frame rate                               : 23.976 fps
Color space                              : YUV
Chroma subsampling                       : 4:2:0
Bit depth                                : 8 bits
Scan type                                : Progressive
Compression mode                         : Lossy
Bits/(Pixel*Frame)                       : 0.260
Stream size                              : 1.06 GiB (78%)
Writing library                          : XviD 1.2.1 (UTC 2008-12-04)
Audio
ID                                       : 1
Format                                   : AC-3
Format/Info                              : Audio Coding 3
Mode extension                           : CM (complete main)
Format settings, Endianness              : Big
Codec ID                                 : 2000
Duration                                 : 1h 51mn
Bit rate mode                            : Constant
Bit rate                                 : 384 Kbps
Channel(s)                               : 6 channels
Channel positions                        : Front: L C R, Side: L R, LFE
Sampling rate                            : 48.0 KHz
Bit depth                                : 16 bits
Compression mode                         : Lossy
Stream size                              : 306 MiB (22%)
Alignment                                : Split accross interleaves
Interleave, duration                     : 42 ms (1.00 video frame)
Interleave, preload duration             : 500 ms

Скриншоты



Создавать темы 16-Сен-2014 00:28

[Профиль]  [ЛС] 

Топик был перенесен из форума Фильмы за 2014 (новинки) в форум Фильмы за 2013
Mixer City

Создавать темы 16-Сен-2014 08:53

 
Показать сообщения:    
Ответить на тему

Текущее время: 21-Авг 04:15

Часовой пояс: UTC + 5



Вы не можете начинать темы
Вы не можете отвечать на сообщения
Вы не можете редактировать свои сообщения
Вы не можете удалять свои сообщения
Вы не можете голосовать в опросах
Вы не можете прикреплять файлы к сообщениям
Вы не можете скачивать файлы