Последняя любовь мистера Моргана / Mr. Morgan's Last Love (Сандра Неттельбек) [2013 г., Драма, Комедия, HDRip] [Лицензия]

Ответить на тему
 

Zab ®

Стаж: 6 лет 4 месяца

Сообщений: 476

Симпатии: 424

-Последняя любовь мистера Моргана / Mr. Morgan's Last Love-«Жизнь не кончается, пока ты можешь мечтать»
-Год выпуска: 2013
Страна: Германия, Бельгия, США, Франция
Жанр: Драма,Комедия
Продолжительность: 01:55:48
Перевод: Профессиональный (дублированный) [Лицензия]-Режиссер: Сандра Неттельбек / Sandra Nettelbeck
В ролях: Майкл Кейн, Клеманс Поэзи, Джиллиан Андерсон, Джастин Кирк, Джейн Александр, Ричард Хоуп, Аликс Пуасон, Анн Альваро, Кристель Корнил, Янник Шуара-Описание: Пожилой американский профессор Мэтью Морган одиноко и замкнуто живет в Париже, преподает философию в университете. Жена, которую он очень любил, умерла несколько лет назад. Кажется, что всё главное в его жизни осталось в прошлом. Так и было, пока однажды в автобусе ему, едва не упавшему, не протянула руку помощи Полин, молодая, открытая, веселая парижанка…- -Тип релиза: HDRip
Видео кодек: XviD
Аудио кодек: AC3
Видео: 720x384 23.976fps 1412kbps
Аудио: Dolby AC3 48000Hz 6ch 384kbps

MediaInfo

General
Complete name                            : D:\[Movies]\Последняя любовь мистера Моргана_HDRip.avi
Format                                   : AVI
Format/Info                              : Audio Video Interleave
File size                                : 1.46 GiB
Duration                                 : 1h 55mn
Overall bit rate                         : 1 806 Kbps
Writing application                      : VirtualDubMod 1.5.10.2 (build 2540/release)
Writing library                          : VirtualDubMod build 2540/release
Video
ID                                       : 0
Format                                   : MPEG-4 Visual
Format profile                           : Advanced Simple@L5
Format settings, BVOP                    : 2
Format settings, QPel                    : No
Format settings, GMC                     : No warppoints
Format settings, Matrix                  : Default (MPEG)
Codec ID                                 : XVID
Codec ID/Hint                            : XviD
Duration                                 : 1h 55mn
Bit rate                                 : 1 413 Kbps
Width                                    : 720 pixels
Height                                   : 384 pixels
Display aspect ratio                     : 1.85:1
Frame rate                               : 23.976 fps
Color space                              : YUV
Chroma subsampling                       : 4:2:0
Bit depth                                : 8 bits
Scan type                                : Progressive
Compression mode                         : Lossy
Bits/(Pixel*Frame)                       : 0.213
Stream size                              : 1.14 GiB (78%)
Writing library                          : XviD 1.2.1 (UTC 2008-12-04)
Audio
ID                                       : 1
Format                                   : AC-3
Format/Info                              : Audio Coding 3
Mode extension                           : CM (complete main)
Format settings, Endianness              : Big
Codec ID                                 : 2000
Duration                                 : 1h 55mn
Bit rate mode                            : Constant
Bit rate                                 : 384 Kbps
Channel(s)                               : 6 channels
Channel positions                        : Front: L C R, Side: L R, LFE
Sampling rate                            : 48.0 KHz
Bit depth                                : 16 bits
Compression mode                         : Lossy
Stream size                              : 318 MiB (21%)
Alignment                                : Split accross interleaves
Interleave, duration                     : 42 ms (1.00 video frame)
Interleave, preload duration             : 500 ms

Скриншоты



Создавать темы 16-Сен-2014 00:52

[Профиль]  [ЛС] 

Топик был перенесен из форума Фильмы за 2014 (новинки) в форум Фильмы за 2013
Mixer City

Создавать темы 16-Сен-2014 08:53

 
Показать сообщения:    
Ответить на тему

Текущее время: 22-Авг 20:04

Часовой пояс: UTC + 5



Вы не можете начинать темы
Вы не можете отвечать на сообщения
Вы не можете редактировать свои сообщения
Вы не можете удалять свои сообщения
Вы не можете голосовать в опросах
Вы не можете прикреплять файлы к сообщениям
Вы не можете скачивать файлы