Злостный Видеоигровой Задрот: Кино / Angry Video Game Nerd: The Movie (Kevin Finn, James D. Rolfe) [21.07.14, Юмор, Приключения, WEBRip]

Ответить на тему
 

yarik ®

Стаж: 4 года 8 месяцев

Сообщений: 225

Симпатии: 123

Злостный Видеоигровой Задрот: Кино
Angry Video Game Nerd: The Movie

Дата/Год выпуска: 21.07.14
Страна: США
Жанр: Юмор, Приключения
Продолжительность: 1:54:50
Режиссер: Kevin Finn, James D. Rolfe
Перевод: Любительский (многоголосый закадровый)
Доп. инфо о переводе: Vina, Artimiz, Хайман, Miori, Lianna, MISTRE SOLYANI4, MaDDeviL, Quta, Псих, Таракан, Тарей, Даймонд, Альт, Иосиф Уманский
Описание: Главная тема фильма — сомнительное захоронение свыше одного миллиона копий так называемых «ужасных игр за всё время». По просьбе своих фанатов, ответ на эту загадку пытается найти Задрот, решив доказать, что там ничего не лежит. Федеральные организации в свою очередь считают, что он расследует Зону 51 и место падения НЛО.
Качество: WEBRip
Формат: MP4
Видео: AVC, 1280x720 16:9, 25 fps, 1800 kbps
Аудио: AAC 44.1 Hz stereo 128 Kbps
Ссылки:

 

Скриншоты






MediaInfo

General
Complete name                            : /home/evgeniy/Видео/Angry Video Game Nerd The Movie-HD.mp4
Format                                   : MPEG-4
Format profile                           : Base Media
Codec ID                                 : isom
File size                                : 1.55 GiB
Duration                                 : 1h 54mn
Overall bit rate                         : 1 932 Kbps
Writing application                      : Lavf54.59.106
Video
ID                                       : 1
Format                                   : AVC
Format/Info                              : Advanced Video Codec
Format profile                           : [email protected]
Format settings, CABAC                   : Yes
Format settings, ReFrames                : 4 frames
Codec ID                                 : avc1
Codec ID/Info                            : Advanced Video Coding
Duration                                 : 1h 54mn
Bit rate                                 : 1 800 Kbps
Width                                    : 1 280 pixels
Height                                   : 720 pixels
Display aspect ratio                     : 16:9
Frame rate mode                          : Constant
Frame rate                               : 25.000 fps
Color space                              : YUV
Chroma subsampling                       : 4:2:0
Bit depth                                : 8 bits
Scan type                                : Progressive
Bits/(Pixel*Frame)                       : 0.078
Stream size                              : 1.44 GiB (93%)
Writing library                          : x264 core 129
Encoding settings                        : cabac=1 / ref=3 / deblock=1:0:0 / analyse=0x3:0x113 / me=hex / subme=7 / psy=1 / psy_rd=1.00:0.00 / mixed_ref=1 / me_range=16 / chroma_me=1 / trellis=1 / 8x8dct=1 / cqm=0 / deadzone=21,11 / fast_pskip=1 / chroma_qp_offset=-2 / threads=24 / lookahead_threads=4 / sliced_threads=0 / nr=0 / decimate=1 / interlaced=0 / bluray_compat=0 / constrained_intra=0 / bframes=3 / b_pyramid=2 / b_adapt=1 / b_bias=0 / direct=1 / weightb=1 / open_gop=0 / weightp=2 / keyint=250 / keyint_min=25 / scenecut=40 / intra_refresh=0 / rc_lookahead=40 / rc=abr / mbtree=1 / bitrate=1800 / ratetol=1.0 / qcomp=0.60 / qpmin=0 / qpmax=69 / qpstep=4 / ip_ratio=1.40 / aq=1:1.00
Language                                 : English
Audio
ID                                       : 2
Format                                   : AAC
Format/Info                              : Advanced Audio Codec
Format profile                           : LC
Codec ID                                 : 40
Duration                                 : 1h 54mn
Duration_LastFrame                       : -11ms
Bit rate mode                            : Constant
Bit rate                                 : 128 Kbps
Channel(s)                               : 2 channels
Channel positions                        : Front: L R
Sampling rate                            : 44.1 KHz
Compression mode                         : Lossy
Stream size                              : 105 MiB (7%)
Language                                 : English


Последний раз редактировалось: yarik (2014-09-16 15:57), всего редактировалось 2 раз(а)

Создавать темы 16-Сен-2014 12:38

[Профиль]  [ЛС] 

yarik ®

Стаж: 4 года 8 месяцев

Сообщений: 225

Симпатии: 123

При перемотке у меня почему-то пропадает звук. Если нажать на паузу и подождать пять секунд, звук восстанавливается. Возможно это у меня плеер погнал или кодек.

Создавать темы 16-Сен-2014 12:54

[Профиль]  [ЛС] 

yarik ®

Стаж: 4 года 8 месяцев

Сообщений: 225

Симпатии: 123

Жду не дождусь, когда Ностальгирующий Критик сделает обзор на этот фильм. Он просто обязан это сделать :)

Создавать темы 16-Сен-2014 12:57

[Профиль]  [ЛС] 

Wolfling

Стаж: 4 года 8 месяцев

Сообщений: 48

Симпатии: 3

876016Жду не дождусь, когда Ностальгирующий Критик сделает обзор на этот фильм. Он просто обязан это сделать :)
На такой фильм скорее дождёшься рецензии от Мастурбируюшего Критика :-)

Создавать темы 16-Сен-2014 13:11

[Профиль]  [ЛС] 

zhozef

Стаж: 5 лет 9 месяцев

Сообщений: 35

Симпатии: 6

Ретинг на ИМДБ 6.5 а здесь 7.5

Создавать темы 17-Сен-2014 07:47

[Профиль]  [ЛС] 

IIpu3pak

Стаж: 5 лет 8 месяцев

Сообщений: 258

Симпатии: 53

Ностальджи Критик, говорите? Вряд ли от него дождешься объективного разбора полетов именно на этот фильм. Самый максимум - дружеские подколы в адрес Нерда.

Создавать темы 17-Сен-2014 21:45

[Профиль]  [ЛС] 

yarik ®

Стаж: 4 года 8 месяцев

Сообщений: 225

Симпатии: 123

IIpu3pak, полностью согласен. Хотя бы несколько дружественных подколов должен пустить.
Он и сам, кстати, в фильме снялся, в одном эпизоде.

Создавать темы 18-Сен-2014 07:54

[Профиль]  [ЛС] 

IIpu3pak

Стаж: 5 лет 8 месяцев

Сообщений: 258

Симпатии: 53

yarik, я видел) Такое сложно пропустить. Там еще был и тот-чувак-с-гитарой, часто мелькающий в выпусках Нерда.

Создавать темы 18-Сен-2014 09:44

[Профиль]  [ЛС] 

yarik ®

Стаж: 4 года 8 месяцев

Сообщений: 225

Симпатии: 123

Этого мужика я тоже узнал, был в 111 эпизоде ))
И конечно же там есть огурчик ))) вот только не помню в каком эпизоде он появился
-Отличный фильм. Вот только вряд ли его поймут те, кто не знаком с AVGN.

Создавать темы 18-Сен-2014 10:00

[Профиль]  [ЛС] 

IIpu3pak

Стаж: 5 лет 8 месяцев

Сообщений: 258

Симпатии: 53

Огурец в одном из ранних выпусков был, но тоже не помню, в каком. А фильм неплох, это да, но снят исключительно "для своих", ибо просто горы фансервиса и типично AVGN-овского юмора. Вообще смотрится все это дело как один большой обзор.

Создавать темы 18-Сен-2014 10:26

[Профиль]  [ЛС] 

Agnee

Стаж: 5 лет 9 месяцев

Сообщений: 40

Графон конечно 10/10. Джеймс постарался)

Создавать темы 22-Сен-2014 02:15

[Профиль]  [ЛС] 
Показать сообщения:    
Ответить на тему

Текущее время: 23-Окт 03:52

Часовой пояс: UTC + 5



Вы не можете начинать темы
Вы не можете отвечать на сообщения
Вы не можете редактировать свои сообщения
Вы не можете удалять свои сообщения
Вы не можете голосовать в опросах
Вы не можете прикреплять файлы к сообщениям
Вы не можете скачивать файлы