Как приручить дракона 2 / How To Train Your Dragon 2 (Дин ДеБлуа) [2014; США; Мультфильм, фэнтези, комедия, приключения, семейный; WEB-DLRip] [Лицензия]

Ответить на тему
 

Мадара ®

Стаж: 5 лет 3 месяца

Сообщений: 187

Симпатии: 7

Как приручить дракона 2 / How To Train Your Dragon 2
-Год выпуска: 2014
Страна: США
Жанр: Мультфильм, фэнтези, комедия, приключения, семейный
Продолжительность: 01:42:13
Перевод: Дублированный [Лицензия / iTunes]
Субтитры: Нет-Режиссер: Дин ДеБлуа-В ролях: Джей Барушель, Джона Хилл, Кейт Бланшетт, Джерард Батлер, Джимон Хонсу, Кристофер Минц-Плассе, Кристен Уиг, Кит Харингтон, Америка Феррера, ТиДжей Миллер, Крэйг Фергюсон.-Описание: С момента примирения викингов и драконов прошло пять лет. Пока Астрид, Сморкала и остальные ребята проводят время соревнуясь друг с другом в популярных на острове драконьих гонках, Иккинг и Беззубик путешествуют по небу, составляя карту неизвестных мест. Когда одно из их приключений приводит к открытию тайной ледяной пещеры, которая является домом для сотен ранее невиданных диких драконов и таинственного драконьего всадника, два друга оказываются в центре битвы за защиту мира.-Качество видео: WEB-DLRip
Формат видео: .mp4
Видео: 720x304, (2.35:1), 23.976 fps, XviD build ~1648 kbps avg, 0.314 bit/pixel
Аудио: 48 kHz, AC3 Dolby Digital, 3/2 (L,C,R,l,r) + LFE ch, ~384.00 kbps | Дубляж-

Знаете ли вы, что...

  • Крис Сандерс, сценарист и режиссер фильма «Как приручить дракона» (2010), в этом фильме отметился лишь как исполнительный продюсер. Сандерс не смог поучаствовать в этом проекте в качестве сценариста и режиссера из-за занятости в работе над фильмом «Семейка Крудс» (2013).
  • Это первый фильм студии DreamWorks Animation, в котором было использовано новое программное обеспечение по анимации и освещению. Новые программы, носящие названия «Premo» и «Torch», позволили добиться улучшений в анимации лиц, в ощущении жира, ощущении от покачивания дряблой кожи и от движения кожи по мышцам.
  • Основным источником вдохновения при создании этого фильма для Дина ДеБлуа послужил фильм «Звездные войны: Эпизод 5 – Империя наносит ответный удар» (1980).
  • Когда Дину ДеБлуа предложили снимать сиквел, он согласился на условиях, что ему можно будет расширить франшизу до трилогии.
  • В трейлере фильма была использована музыка «Beyond the Clouds», написанная музыкальной продакшн-компанией Audiomachine.
  • В отличие от первого фильма дистрибьютором этого стала студия «20th Century Fox», поскольку в 2012 году DreamWorks Animation отказалась от сотрудничества со студией Paramount Pictures.
  • Рисуя острова своего фэнтези-мира, художники «Как приручить дракона 2» вдохновлялись природой Норвегии.
  • MediaInfo

    General
    Complete name : How.To.Train.Your.Dragon.2.2014.D.WEB-DLRip.1400Mb.avi
    Format : .mp4
    File size : 1.46 GiB
    Duration : 1h 42mn
    Overall bit rate : 2 039 Kbps
    Writing application : VirtualDubMod 1.5.10.2 (build 2540/release)
    Writing library : VirtualDubMod build 2540/release
    Video
    ID : 0
    Format : MPEG-4 Visual
    Format profile : Advanced [email protected]
    Format settings, BVOP : 2
    Format settings, QPel : No
    Format settings, GMC : No warppoints
    Format settings, Matrix : Default (MPEG)
    Codec ID : XVID
    Codec ID/Hint : XviD
    Duration : 1h 42mn
    Bit rate : 1 647 Kbps
    Width : 720 pixels
    Height : 304 pixels
    Display aspect ratio : 2.35:1
    Frame rate : 23.976 fps
    Color space : YUV
    Chroma subsampling : 4:2:0
    Bit depth : 8 bits
    Scan type : Progressive
    Compression mode : Lossy
    Bits/(Pixel*Frame) : 0.314
    Stream size : 1.18 GiB (81%)
    Writing library : XviD 1.2.1 (UTC 2008-12-04)
    Audio
    ID : 1
    Format : AC-3
    Format/Info : Audio Coding 3
    Mode extension : CM (complete main)
    Format settings, Endianness : Big
    Codec ID : 2000
    Duration : 1h 41mn
    Bit rate mode : Constant
    Bit rate : 384 Kbps
    Channel(s) : 6 channels
    Channel positions : Front: L C R, Side: L R, LFE
    Sampling rate : 48.0 KHz
    Bit depth : 16 bits
    Compression mode : Lossy
    Stream size : 280 MiB (19%)
    Alignment : Split accross interleaves
    Interleave, duration : 42 ms (1.00 video frame)
    Interleave, preload duration : 500 ms

    Скриншоты





    Последний раз редактировалось: Мадара (2014-09-21 20:38), всего редактировалось 4 раз(а)

    Создавать темы 19-Сен-2014 18:38

    [Профиль]  [ЛС] 

    Slapper

    Стаж: 4 года 1 месяц

    Сообщений: 2193

    Симпатии: 213

    Формат видео: avi*.mp4

    Создавать темы 19-Сен-2014 18:42

    [Профиль]  [ЛС] 

    Мадара ®

    Стаж: 5 лет 3 месяца

    Сообщений: 187

    Симпатии: 7

    876967
    Формат видео: avi*.mp4
    Ошибся ))

    Комментарий от Slapper


    бывает)

    Создавать темы 19-Сен-2014 18:45

    [Профиль]  [ЛС] 
    Показать сообщения:    
    Ответить на тему

    Текущее время: 18-Дек 12:14

    Часовой пояс: UTC + 5



    Вы не можете начинать темы
    Вы не можете отвечать на сообщения
    Вы не можете редактировать свои сообщения
    Вы не можете удалять свои сообщения
    Вы не можете голосовать в опросах
    Вы не можете прикреплять файлы к сообщениям
    Вы не можете скачивать файлы