Трансформеры: Эпоха истребления / Transformers: Age Of Extinction (Майкл Бэй / Michael Bay) [2014, США, Китай, Фантастика, боевик, приключения, BDRip 720p] Dub [Чистый звук] + Original Eng + Sub eng

Ответить на тему
 

yusuf.0088 ®

Стаж: 3 года 10 месяцев

Сообщений: 116

Симпатии: 69

Трансформеры: Эпоха истребления / Transformers: Age Of Extinction
«Сражаться вместе... Или погибнуть вместе»
-- Год выпуска: 2014
Страна: США, Китай
Жанр: Фантастика, боевик, приключения
Продолжительность: 02:40:05--Перевод: Профессиональный (полное дублирование) [Чистый звук]
Оригинальная дорожка: английская
Cубтитры: английские--Режиссер: Майкл Бэй / Michael Bay--В ролях: Марк Уолберг, Никола Пельтц, Стэнли Туччи, Келси Грэммер, София Майлс, Эбигейл Клейн, Джек Рейнор, Титус Уэлливер, Питер Каллен, ТиДжей Миллер--Описание: Автоботы и десептиконы покинули планету, оставив человечество собирать ее по кусочкам. Между тем группа могущественных бизнесменов и гениальных ученых пытается извлечь уроки из ошибок прошлого и улучшить технологии до такой степени, чтобы выйти за пределы контролируемого ранее. В это время другая группа — древних мощных трансформеров — берет Землю под прицел.-- --Качество: BDRip 720p
Формат: MKV--Видео: MPEG-4 AVC / 5600 Кбит/с, 1280x536
Аудио 1: Русский AC3 2 ch / 384 Кбит/с / 48КГц |Дубляж|
Аудио 2: Aнглийский AC3 6 ch / 640 Кбит/с / 48КГц |Original|
Сохранены оригинальные чаптеры как на Blu-Ray

Media Info

Формат : Matroska
Версия формата : Version 4 / Version 2
Размер файла : 7,64 Гбайт
Продолжительность : 2 ч. 45 м.
Общий поток : 6625 Кбит/сек
Название фильма : Transformers: Age of Extinction (2014)
Дата кодирования : UTC 2014-09-22 13:28:59
Программа кодирования : mkvmerge v6.0.0 ('Coming Up For Air') built on Jan 20 2013 09:52:00
Библиотека кодирования : libebml v1.3.0 + libmatroska v1.4.0
Видео
Идентификатор : 1
Формат : AVC
Формат/Информация : Advanced Video Codec
Профиль формата : [email protected]
Параметр CABAC формата : Да
Параметр ReFrames формата : 7 кадров
Идентификатор кодека : V_MPEG4/ISO/AVC
Продолжительность : 2 ч. 45 м.
Битрейт : 5600 Кбит/сек
Ширина : 1280 пикселей
Высота : 536 пикселей
Соотношение сторон : 2,40:1
Режим частоты кадров : Постоянный
Частота кадров : 23,976 кадра/сек
Цветовое пространство : YUV
Субдискретизация насыщенности : 4:2:0
Битовая глубина : 8 бит
Тип развёртки : Прогрессивная
Бит/(Пиксели*Кадры) : 0.340
Размер потока : 6,31 Гбайт (83%)
Библиотека кодирования : x264 core 138 r2358 9e941d1
Настройки программы : cabac=1 / ref=7 / deblock=1:-3:-3 / analyse=0x3:0x113 / me=umh / subme=10 / psy=1 / psy_rd=1.00:0.00 / mixed_ref=1 / me_range=32 / chroma_me=1 / trellis=2 / 8x8dct=1 / cqm=0 / deadzone=21,11 / fast_pskip=1 / chroma_qp_offset=-2 / threads=12 / lookahead_threads=1 / sliced_threads=0 / nr=0 / decimate=1 / interlaced=0 / bluray_compat=0 / constrained_intra=0 / bframes=12 / b_pyramid=2 / b_adapt=1 / b_bias=0 / direct=1 / weightb=1 / open_gop=0 / weightp=2 / keyint=240 / keyint_min=23 / scenecut=40 / intra_refresh=0 / rc_lookahead=40 / rc=2pass / mbtree=1 / bitrate=5600 / ratetol=1.0 / qcomp=0.60 / qpmin=0 / qpmax=69 / qpstep=4 / cplxblur=20.0 / qblur=0.5 / vbv_maxrate=50000 / vbv_bufsize=62500 / nal_hrd=none / ip_ratio=1.40 / aq=1:1.00
Язык : English
Default : Да
Forced : Нет
Аудио #1
Идентификатор : 2
Формат : AC-3
Формат/Информация : Audio Coding 3
Расширение режима : CM (complete main)
Параметр Endianness формата : Big
Идентификатор кодека : A_AC3
Продолжительность : 2 ч. 45 м.
Вид битрейта : Постоянный
Битрейт : 384 Кбит/сек
Каналы : 2 канала
Расположение каналов : Front: L R
Частота : 48,0 КГц
Битовая глубина : 16 бит
Метод сжатия : С потерями
Размер потока : 454 Мбайт (6%)
Заголовок : line
Язык : Russian
Default : Да
Forced : Нет
Аудио #2
Идентификатор : 3
Формат : AC-3
Формат/Информация : Audio Coding 3
Расширение режима : CM (complete main)
Параметр Endianness формата : Big
Идентификатор кодека : A_AC3
Продолжительность : 2 ч. 45 м.
Вид битрейта : Постоянный
Битрейт : 640 Кбит/сек
Каналы : 6 каналов
Расположение каналов : Front: L C R, Side: L R, LFE
Частота : 48,0 КГц
Битовая глубина : 16 бит
Метод сжатия : С потерями
Размер потока : 756 Мбайт (10%)
Язык : English
Default : Нет
Forced : Нет
Текст #1
Идентификатор : 4
Формат : UTF-8
Идентификатор кодека : S_TEXT/UTF8
Идентификатор кодека/Информация : UTF-8 Plain Text
Заголовок : Forced
Язык : English
Default : Нет
Forced : Нет
Текст #2
Идентификатор : 5
Формат : UTF-8
Идентификатор кодека : S_TEXT/UTF8
Идентификатор кодека/Информация : UTF-8 Plain Text
Заголовок : Full
Язык : English
Default : Нет
Forced : Нет
Текст #3
Идентификатор : 6
Формат : UTF-8
Идентификатор кодека : S_TEXT/UTF8
Идентификатор кодека/Информация : UTF-8 Plain Text
Заголовок : SDH
Язык : English
Default : Нет
Forced : Нет
Меню
00:00:00.000 : en:00:00:00.000
00:06:51.578 : en:00:06:51.578
00:14:33.581 : en:00:14:33.581
00:21:37.463 : en:00:21:37.463
00:30:13.395 : en:00:30:13.395
00:38:45.990 : en:00:38:45.990
00:46:08.057 : en:00:46:08.057
00:51:39.513 : en:00:51:39.513
00:59:09.337 : en:00:59:09.337
01:07:48.648 : en:01:07:48.648
01:15:14.552 : en:01:15:14.552
01:23:25.292 : en:01:23:25.292
01:29:14.724 : en:01:29:14.724
01:37:16.956 : en:01:37:16.956
01:44:35.436 : en:01:44:35.436
01:51:25.053 : en:01:51:25.053
01:57:47.936 : en:01:57:47.936
02:04:48.481 : en:02:04:48.481
02:12:35.865 : en:02:12:35.865
02:21:04.206 : en:02:21:04.206
02:28:48.670 : en:02:28:48.670
02:37:09.629 : en:02:37:09.629

Скриншоты

Создавать темы 22-Сен-2014 19:00

[Профиль]  [ЛС] 

abbos_net

Стаж: 3 года 10 месяцев

Сообщений: 21

Симпатии: 8

СКОРОСТТТТТТТТТТТТТТТ ГДЕЕЕЕЕЕЕЕЕЕЕ????????????

Создавать темы 07-Окт-2014 17:02

[Профиль]  [ЛС] 
Показать сообщения:    
Ответить на тему

Текущее время: 18-Авг 12:05

Часовой пояс: UTC + 5



Вы не можете начинать темы
Вы не можете отвечать на сообщения
Вы не можете редактировать свои сообщения
Вы не можете удалять свои сообщения
Вы не можете голосовать в опросах
Вы не можете прикреплять файлы к сообщениям
Вы не можете скачивать файлы