Ментовские войны 8 (Сезон 8, Серии: 1-16 из 16) (Денис Скворцов) [2014г., Криминал, Детектив, SATRip] + Бонус (Эпилог и 3 спин офф фильма про главных героев)+(Документальный: Герои Ментовских войн - про съемки сезона)

Страницы :  1, 2, 3, 4  След.

Ответить на тему
 

Mercuriy ®

Стаж: 5 лет 11 месяцев

Сообщений: 418

Симпатии: 100

--Ментовские войны 8
+(Документальный: Герои Ментовских войн - про съемки сезона)
-(Сезон 8, Серии: с 1-й по 16-ю из 16)--- Год выпуска: 2014
Страна: Россия, Russia Компания [Панорама] по заказу Телеканала НТВ
Жанр: Криминал, Детектив
Сезон: 8
Серии: 1-16 из 16
Продолжительность: ~ 00:45:00
Перевод: Не требуется--Режиссеры: Денис Скворцов--В ролях: Александр Устюгов, Дмитрий Быковский-Ромашов, Всеволод Цурило, Мария Иванова (IV), Анатолий Узденский, Сергей Лысов, Ольга Иванова (IV), Александр Лисицын, Руслан Ибрагимов, Андрей Родимов, Владимир Сапрыкин, Дарья Юргенс, Александр Ленин, Марина Денисова, Антон Мошечков, Олег Гаянов, Андрей Погребинский, Диана Дезмари, Роман Жилкин, Владимир Кебин, Елизавета Ковалева, Владимир Студеновский--Описание: Перевод в районный отдел лишает Романа Шилова многих привычных рычагов контроля над криминальной обстановкой в городе, но также развязывает ему руки. С помощью своих верных друзей — Павла Арнаутова и Евгения Иванова по прозвищу «Джексон» — он продолжает внимательно следить за обстановкой в ГУВД, и случай напомнить о себе предоставляется Роману очень скоро. Расследование махинаций начальника УБЭП Каспяряна приводит Романа к раскрытию целой системы торговли должностями и вымогательства под прикрытием высоких званий. Дубровский, не растерявший и толики своего былого влияния, продолжает насаждать коррупцию в Петербурге, но и Роман не думает ему уступать. Тем более, что в его руках наконец-то появляются сильные козыри против двух своих старых врагов — Ковалёва и Демидова…
-- -- --Качество: SATRip
Формат: AVI
Видео кодек: XviD
Аудио кодек: AC3
Видео: 720x400 (1.80:1), 25 fps, XviD build 50 ~1548 kbps avg, 0.22 bit/pixel
Аудио: 48 kHz, AC3 Dolby Digital, 2/0 (L,R) ch, ~192.00 kbps avg
--

MI:

General
Format : AVI
Format/Info : Audio Video Interleave
File size : 550 MiB
Duration : 44mn 27s
Overall bit rate : 1 731 Kbps
Writing application : VirtualDubMod 1.5.10.3 | www.virtualdub-fr.org || (build 2550/release)
Writing library : VirtualDubMod build 2550/release
Video
ID : 0
Format : MPEG-4 Visual
Format profile : Advanced [email protected]
Format settings, BVOP : 1
Format settings, QPel : No
Format settings, GMC : No warppoints
Format settings, Matrix : Custom
Codec ID : XVID
Codec ID/Hint : XviD
Duration : 44mn 27s
Bit rate : 1 529 Kbps
Width : 720 pixels
Height : 400 pixels
Display aspect ratio : 16:9
Frame rate : 25.000 fps
Color space : YUV
Chroma subsampling : 4:2:0
Bit depth : 8 bits
Scan type : Progressive
Compression mode : Lossy
Bits/(Pixel*Frame) : 0.212
Stream size : 486 MiB (88%)
Writing library : XviD 1.2.1 (UTC 2008-12-04)
Audio
ID : 1
Format : AC-3
Format/Info : Audio Coding 3
Mode extension : CM (complete main)
Format settings, Endianness : Big
Codec ID : 2000
Duration : 44mn 27s
Bit rate mode : Constant
Bit rate : 192 Kbps
Channel(s) : 2 channels
Channel positions : Front: L R
Sampling rate : 48.0 KHz
Bit depth : 16 bits
Compression mode : Lossy
Stream size : 61.0 MiB (11%)
Alignment : Split accross interleaves
Interleave, duration : 40 ms (1.00 video frame)
Interleave, preload duration : 500 ms
--

Ментовские войны - "Эпилог (Егор Абросимов) [2008г., Криминал, Детектив, WEB-DLRip]

Ментовские войны
Эпилог
--- Год выпуска: 2008
Страна: Россия, Russia Компания [Панорама] по заказу Телеканала НТВ
Жанр: Криминал, Детектив
Продолжительность: ~ 01:39:00
Перевод: Не требуется--Режиссеры: Егор Абросимов--В ролях: Александр Устюгов, Дмитрий Быковский-Ромашов, Александр Лисицын, Олег Жданов, Геннадий Косарев, Анатолий Узденский, Михаил Слесарев, Елена Игнатьева, Евгения Игумнова, Марина Игнатова, Александр Большаков, Алексей Завьялов, Дарья Лесникова (Юргенс), Наталья Бурмистрова (II), Александр Кошкарев, Леонид Осокин, Вадим Бочанов, Сергей Кушаков, Илья Савельев, Андрей Родимов, Юрий Сташин, Роман Якушов--Описание: В ходе жаркой предвыборной гонки, на пост спикера петербургской городской думы претендуют сразу два очень влиятельных в городе бизнесмена - бывший председатель Союза ветеранов Афганистана Юрий Шубин и бывший руководитель нефтяной компании Пётр Набоков. Оба соперника крайне серьезно настроены на борьбу, и никакой результат кроме победы ни одного из них не утраивает. В самый драматический момент компании одного из кандидатов - Шубина - начинает преследовать таинственный шантажист. Этот человек знает о бизнесе бывшего "афганца" такое подробности, которые могут быть известны только очень близким людям. Тем временем, Апостол тоже не дремлет. Ему удается переманить на свою сторону одного из сотрудников Шубина, который за определенное вознаграждение готов поделиться с сотрудниками "убойного" отдела информацией о былых подвигах своего шефа. Скрябин и Джексон решают взяться за это дело, тем более, что они уже не один год искали доказательства преступной деятельности Шубина. Однако дело оборачивается совершенно неожиданным образом. В результате, Джексон оказывается в тюрьме, а Скрябин бесследно исчезает. Шилову вновь приходится возвращаться в родной город...
-- --Качество: WEB-DLRip
Формат: MKV
Видео кодек: AVC
Аудио кодек: AC3
Видео: 720x432 (1.85:1), 25 fps, build 50 ~2550 kbps avg, 0.22 bit/pixel
Аудио: 48 kHz, AC3 Dolby Digital, 6/0 (L,R) ch, ~384.00 kbps avg
--

MI:

General
Format : Matroska
Format version : Version 2
File size : 2.05 GiB
Duration : 1h 39mn
Overall bit rate : 2 935 Kbps
Encoded date : UTC 2011-09-12 11:12:59
Writing application : mkvmerge v4.9.1 ('Ich will') сборка от Jul 11 2011 23:53:15
Writing library : libebml v1.2.1 + libmatroska v1.1.1
Video
ID : 1
Format : AVC
Format/Info : Advanced Video Codec
Format profile : [email protected]
Format settings, CABAC : Yes
Format settings, ReFrames : 4 frames
Muxing mode : Header stripping
Codec ID : V_MPEG4/ISO/AVC
Duration : 1h 39mn
Bit rate : 2 550 Kbps
Width : 720 pixels
Height : 432 pixels
Display aspect ratio : 1.85:1
Original display aspect ratio : 1.85:1
Frame rate mode : Constant
Frame rate : 25.000 fps
Color space : YUV
Chroma subsampling : 4:2:0
Bit depth : 8 bits
Scan type : Progressive
Bits/(Pixel*Frame) : 0.328
Stream size : 1.74 GiB (85%)
Writing library : x264 core 116 r2074 2641b9e
Encoding settings : cabac=1 / ref=4 / deblock=1:-1:-1 / analyse=0x3:0x113 / me=umh / subme=7 / psy=1 / psy_rd=1.00:0.00 / mixed_ref=1 / me_range=16 / chroma_me=1 / trellis=2 / 8x8dct=1 / cqm=0 / deadzone=21,11 / fast_pskip=1 / chroma_qp_offset=-2 / threads=3 / sliced_threads=0 / nr=0 / decimate=1 / interlaced=0 / bluray_compat=0 / constrained_intra=0 / bframes=3 / b_pyramid=0 / b_adapt=2 / b_bias=0 / direct=3 / weightb=1 / open_gop=0 / weightp=2 / keyint=250 / keyint_min=25 / scenecut=40 / intra_refresh=0 / rc_lookahead=40 / rc=2pass / mbtree=1 / bitrate=2550 / ratetol=1.0 / qcomp=0.60 / qpmin=10 / qpmax=51 / qpstep=4 / cplxblur=20.0 / qblur=0.5 / vbv_maxrate=50000 / vbv_bufsize=50000 / nal_hrd=none / ip_ratio=1.40 / aq=1:1.00
Language : English
Default : Yes
Forced : No
Audio
ID : 2
Format : AC-3
Format/Info : Audio Coding 3
Mode extension : CM (complete main)
Format settings, Endianness : Big
Muxing mode : Header stripping
Codec ID : A_AC3
Duration : 1h 39mn
Bit rate mode : Constant
Bit rate : 384 Kbps
Channel(s) : 6 channels
Channel positions : Front: L C R, Side: L R, LFE
Sampling rate : 48.0 KHz
Bit depth : 16 bits
Compression mode : Lossy
Stream size : 275 MiB (13%)
Default : Yes
Forced : No
--

Ментовские войны - Отдельное поручение (Дмитрий Аверин) [2012г., Криминал, Детектив, WEB-DLRip 720p]

Ментовские войны
Отдельное поручение
--- Год выпуска: 2012
Страна: Россия, Russia Компания [Панорама] по заказу Телеканала НТВ
Жанр: Криминал, Детектив
Продолжительность: ~ 01:26:40
Перевод: Не требуется--Режиссеры: Дмитрий Аверин--В ролях: Всеволод Цурило, Руслан Кацагаджиев, Анна Некрасова, Александра Сыдорук, Дмитрий Александров, Владимир Бирюков, Евгений Березкин, Иван Батерев, Антон Чернов, Ольга Одинцова, Илья Савельев, Олег Гаянов, Владимир Соснин, Сергей Змигеровский, Владимир Заморин и др.--Описание: Перегоняя по отдельному поручению следователя автомобиль - вещественное доказательство в одном уголовном деле - из Перми в Петербург, Паша Арнаутов оказывается в самом эпицентре противостояния двух бандитских группировок. "Хозяин" посёлка Счастливое, через который пролегал путь арнаутовского "мерседеса", по прозвищу Цепованный приказывает своим людям напасть на Пашу и отнять у него машину, в которой случайная попутчица Арнаутова могла тайком спрятать флешку с компроматом на Цепованного и его подручных. Несмотря на уговоры местного старожила Кушнарёва, Паша решает во что бы то ни стало вернуть свою машину и освободить находящуюся в плену у бандитов Настю - хозяйку пропавшей флешки. В бой с уголовниками Паше приходится идти одному - только он готов бросить им вызов...
-- --Качество: WEB-DLRip 720p
Формат: MKV
Видео кодек: AVC
Аудио кодек: AC3
Видео: 1280x720 (16:9), 25 fps, build 50 ~2500 kbps avg, 0.22 bit/pixel
Аудио: 48 kHz, AC3 Dolby Digital, 2/0 (L,R) ch,
--

MI:

General
Format : Matroska
Format version : Version 4 / Version 2
File size : 1.61 GiB
Duration : 1h 27mn
Overall bit rate : 2 627 Kbps
Encoded date : UTC 2013-07-12 08:46:58
Writing application : mkvmerge v6.3.0 ('You can't stop me!') built on Jun 28 2013 20:09:41
Writing library : libebml v1.3.0 + libmatroska v1.4.0
Video
ID : 1
Format : AVC
Format/Info : Advanced Video Codec
Format profile : [email protected]
Format settings, CABAC : Yes
Format settings, ReFrames : 4 frames
Codec ID : V_MPEG4/ISO/AVC
Duration : 1h 27mn
Nominal bit rate : 2 500 Kbps
Width : 1 280 pixels
Height : 720 pixels
Display aspect ratio : 16:9
Frame rate mode : Constant
Frame rate : 25.000 fps
Color space : YUV
Chroma subsampling : 4:2:0
Bit depth : 8 bits
Scan type : Progressive
Bits/(Pixel*Frame) : 0.109
Title : Отдельное поручение, 2012
Writing library : x264 core 120
Encoding settings : cabac=1 / ref=2 / deblock=1:0:0 / analyse=0x1:0x131 / me=umh / subme=6 / psy=0 / mixed_ref=0 / me_range=16 / chroma_me=1 / trellis=0 / 8x8dct=0 / cqm=0 / deadzone=21,11 / fast_pskip=0 / chroma_qp_offset=0 / threads=1 / sliced_threads=0 / nr=0 / decimate=1 / interlaced=0 / bluray_compat=0 / constrained_intra=0 / bframes=2 / b_pyramid=2 / b_adapt=1 / b_bias=0 / direct=3 / weightb=1 / open_gop=0 / weightp=2 / keyint=25 / keyint_min=2 / scenecut=40 / intra_refresh=0 / rc_lookahead=25 / rc=2pass / mbtree=0 / bitrate=2500 / ratetol=1.0 / qcomp=0.60 / qpmin=7 / qpmax=51 / qpstep=4 / cplxblur=20.0 / qblur=0.5 / vbv_maxrate=4096 / vbv_bufsize=2048 / nal_hrd=none / ip_ratio=1.40 / pb_ratio=1.30 / aq=1:1.00
Language : Russian
Default : Yes
Forced : No
Audio
ID : 2
Format : AAC
Format/Info : Advanced Audio Codec
Format profile : LC
Codec ID : A_AAC
Duration : 1h 27mn
Channel(s) : 2 channels
Channel positions : Front: L R
Sampling rate : 48.0 KHz
Compression mode : Lossy
Delay relative to video : 80ms
Title : Русский [Оригинал]
Language : Russian
Default : Yes
Forced : No
--

Ментовские войны - Просто Джексон (Леонид Пляскин) [2012г., Криминал, Детектив, WEB-DLRip]

Ментовские войны
Просто Джексон
--- Год выпуска: 2012
Страна: Россия, Russia Компания [Панорама] по заказу Телеканала НТВ
Жанр: Криминал, Детектив
Продолжительность: ~ 01:32:00
Перевод: Не требуется--Режиссеры: Леонид Пляскин--В ролях: Дмитрий Быковский-Ромашов, Андрей Горбачев, Екатерина Суворова, Григорий Орлов, Роман Бокашевский, Андрей Гульнев, Елизавета Прилепская, Сергей Великанов, Андрей Мокеев, Леонид Луценко, Илья Катунцев, Евгений Катаев, Дарья Юргенс, Алексей Назаров и др.--Описание: Расследуя дело о пропаже сына бывшего начальника угрозыска Дегтярёва, опер, майор Евгений Иванов по прозвищу Джексон задерживает возможного подозреваемого - Алексея Ивченко, владельца машины, в который силой увезли похищенного юношу. В салоне автомобиля Джексон находит сумку, доверху набитую деньгами в банковской упаковке, украденными во время последнего из серии ограблений и убийств инкассаторов. Задержанный Ивченко отказывается общаться со следователем Екатериной Хмелёвой, ведущей его дело, но Джексон знает, что Ивченко остаётся единственной ниточкой, связывающей оба дела - похищение Дегтярёва и разбойные нападения на инкассаторские машины...
-- --Качество: WEB-DLRip
Формат: AVI
Видео кодек: XviD
Аудио кодек: AC3
Видео: 704x400 (1.76:1), 25 fps, XviD build 65 ~1920 kbps avg, 0.27 bit/pixel
Аудио: 48 kHz, AC3 Dolby Digital, 2/0 (L,R) ch, ~192 kbps
--

MI:

General
Format : AVI
Format/Info : Audio Video Interleave
File size : 1.36 GiB
Duration : 1h 32mn
Overall bit rate : 2 122 Kbps
Writing application : VirtualDubMod 1.5.10.3 | www.virtualdub-fr.org || (build 2550/release)
Writing library : VirtualDubMod build 2550/release
Video #0
ID : 0
Format : MPEG-4 Visual
Format profile : Advanced [email protected]
Format settings, BVOP : 2
Format settings, QPel : No
Format settings, GMC : No warppoints
Format settings, Matrix : Custom
Codec ID : XVID
Codec ID/Hint : XviD
Duration : 1h 32mn
Bit rate : 1 921 Kbps
Width : 704 pixels
Height : 400 pixels
Display aspect ratio : 16:9
Frame rate : 25.000 fps
Color space : YUV
Chroma subsampling : 4:2:0
Bit depth : 8 bits
Scan type : Progressive
Compression mode : Lossy
Bits/(Pixel*Frame) : 0.273
Stream size : 1.23 GiB (90%)
Writing library : XviD 65
Audio #1
ID : 1
Format : AC-3
Format/Info : Audio Coding 3
Mode extension : CM (complete main)
Format settings, Endianness : Big
Codec ID : 2000
Duration : 1h 32mn
Bit rate mode : Constant
Bit rate : 192 Kbps
Channel(s) : 2 channels
Channel positions : Front: L R
Sampling rate : 48.0 KHz
Bit depth : 16 bits
Compression mode : Lossy
Stream size : 126 MiB (9%)
Alignment : Split accross interleaves
Interleave, duration : 40 ms (1.00 video frame)
Interleave, preload duration : 500 ms

Ментовские войны - Моя фамилия Шилов (Андрей Элинсон) [2013г., Криминал, Детектив, [H.264/720p-LQ]

Ментовские войны
Моя фамилия Шилов
--- Год выпуска: 2013
Страна: Россия, Russia Компания [Панорама] по заказу Телеканала НТВ
Жанр: Криминал, Детектив
Продолжительность: ~ 01:31:59
Перевод: Не требуется--Режиссеры: Андрей Элинсон--В ролях: Александр Устюгов, Константин Стрельников, Всеволод Цурило, Сергей Перегудов, Светлана Смирнова-Кацагаджиева, Мария Синяева, Геннадий Алимпиев, Алексей Федотов, Влада Макейчик, Игорь Клочков, Юрий Орлов, Сергей Колос, Егор Закреничный, Виталий Исаков--Описание: После увольнения из ГУВД Роман Шилов решает уделить время своей личной жизни. Но встрече с Максаковой, с которой он давно мечтал объясниться, мешает звонок от жены Михаила Краснова, показания которого когда-то помоги посадить за решётку опасного убийцу. Надя Краснова в слезах сообщает Шилову, что Михаила похитили неизвестные. Бросившись на выручку старого приятеля, Шилов попадает в криминальный водоворот, разрушивший спокойную жизнь провинциального городка, в котором Красновы владели автомастерской. Местный вор в законе по прозвищу Профессор ищет пропавший воровской «общак» и обвиняет в его исчезновении Краснова.
-- --Качество: WEB-DLRip 720p
Формат: AVI
Видео кодек: MPEG-4 AVC/H.264
Аудио кодек: AC3
Видео: 1280x720 (16:9), 25 fps, ~2500 kbps avg, 0.27 bit/pixel
Аудио: 48 kHz, AC3 Dolby Digital, 2/0 (L,R) ch, ~128 kbps
--

MI:

General
Format : Matroska
Format version : Version 4 / Version 2
File size : 1.69 GiB
Duration : 1h 31mn
Overall bit rate : 2 629 Kbps
Encoded date : UTC 2013-10-31 05:05:40
Writing application : mkvmerge v6.5.0 ('Isn't she lovely') built on Oct 20 2013 12:50:05
Writing library : libebml v1.3.0 + libmatroska v1.4.1
Video
ID : 1
Format : AVC
Format/Info : Advanced Video Codec
Format profile : [email protected]
Format settings, CABAC : Yes
Format settings, ReFrames : 3 frames
Codec ID : V_MPEG4/ISO/AVC
Duration : 1h 31mn
Nominal bit rate : 2 500 Kbps
Width : 1 280 pixels
Height : 720 pixels
Display aspect ratio : 16:9
Frame rate mode : Constant
Frame rate : 25.000 fps
Color space : YUV
Chroma subsampling : 4:2:0
Bit depth : 8 bits
Scan type : Progressive
Bits/(Pixel*Frame) : 0.109
Title : Моя фамилия Шилов (2013)
Writing library : x264 core 130
Encoding settings : cabac=1 / ref=4 / deblock=1:0:0 / analyse=0x3:0x133 / me=umh / subme=9 / psy=1 / psy_rd=1.00:0.00 / mixed_ref=1 / me_range=24 / chroma_me=1 / trellis=2 / 8x8dct=1 / cqm=0 / deadzone=21,11 / fast_pskip=1 / chroma_qp_offset=-2 / threads=2 / lookahead_threads=1 / sliced_threads=0 / nr=0 / decimate=1 / interlaced=0 / bluray_compat=0 / constrained_intra=0 / bframes=9 / b_pyramid=1 / b_adapt=2 / b_bias=0 / direct=3 / weightb=1 / open_gop=0 / weightp=2 / keyint=100 / keyint_min=10 / scenecut=40 / intra_refresh=0 / rc_lookahead=100 / rc=2pass / mbtree=1 / bitrate=2500 / ratetol=1.0 / qcomp=0.60 / qpmin=0 / qpmax=69 / qpstep=4 / cplxblur=20.0 / qblur=0.5 / vbv_maxrate=3250 / vbv_bufsize=3750 / nal_hrd=none / ip_ratio=1.40 / aq=1:1.00
Language : Russian
Default : Yes
Forced : No
Audio
ID : 2
Format : AAC
Format/Info : Advanced Audio Codec
Format profile : LC
Codec ID : A_AAC
Duration : 1h 31mn
Channel(s) : 2 channels
Channel positions : Front: L R
Sampling rate : 48.0 KHz
Compression mode : Lossy
Delay relative to video : -6ms
Title : Оригинал [Русский]
Language : Russian
Default : Yes
Forced : No
--
--

Внимание! Раздача ведётся путём добавления новых серий!:

Внимание! Раздача ведётся путём добавления новых серий
Внимание! Раздача ведётся путём добавления новых серий; при каждом добавлении создётся новый торрент.
Чтобы начать докачку новой серии, пользователям необходимо сделать следующее:
1) остановить скачивание
2) удалить старый торрент у себя из клиента (старые серии удалять не надо)
3) скачать новый торрент и запустить его у себя в клиенте вместо старого, при этом указать клиенту путь в старую папку куда и должно происходить скачивание новых серий.
Ваш клиент при этом должен произвести хеширование (проверку) старой папки (если не производит сам - помогите ему сделать это), и будет докачивать только те серии которых у вас ещё нет. Старые серии при этом не удаляются, а продолжают раздаваться!
Eсли вы уже удалили старые серии, то предотвратить повторную закачку старых серий можно, отжав галочку в соответствовавших местах при запуске нового торрента.
--


Последний раз редактировалось: Mercuriy (2014-10-02 09:44), всего редактировалось 8 раз(а)

Создавать темы 24-Сен-2014 09:47

[Профиль]  [ЛС] 

edgemza

Стаж: 6 лет 5 месяцев

Сообщений: 191

Симпатии: 7

У вас раздача с НЕУДАЧНЫМИ тех.характеристиками!
Видео в среднем 486 Мб, аудио 61 Мб в излишнем АС3 формате!
В сравнении в раздачей xxxxx (https://tas-ix.net/viewtopic.php?t=99127),
там - видео 553 Мб, аудио 40 Мб (MP3 layer 3)!
Мне кажется уж лучше бы он раздавал, но там почему-то дальше 2-й серии не обновилось...

Создавать темы 24-Сен-2014 10:20

[Профиль]  [ЛС] 

Zab

Стаж: 6 лет 5 месяцев

Сообщений: 476

Симпатии: 424

edgemza, В дальнейшем скачивайте тут, качества почти одинаковое..


Последний раз редактировалось: Zab (2014-09-27 22:24), всего редактировалось 1 раз

Создавать темы 24-Сен-2014 11:28

[Профиль]  [ЛС] 

edgemza

Стаж: 6 лет 5 месяцев

Сообщений: 191

Симпатии: 7

xxxxx, жаль что вы прекратили поддержку своего релиза :( он был лучше (https://tas-ix.net/viewtopic.php?p=878296#878296)!

Создавать темы 24-Сен-2014 13:09

[Профиль]  [ЛС] 

Mercuriy ®

Стаж: 5 лет 11 месяцев

Сообщений: 418

Симпатии: 100

edgemza, Не нравится проходи мимо и не сори в теме. не нравится зачем качаеш ??
P.S. Если хочешь могу дать ссыль на те параметры на внешке..
P.S. 2 Еще за долго до упомянутого релиза я взял на внешке несколько вариантов и на следующий другой вариант слил этот показался и картинке и по звуку лучьше (хоть и параметры с небольшой разнице) так сказать не по сухим цифровым данным а воочию, все искал вариант приближенный к качеству предидущих сезонов WEBDL.....
edgemza, И вообще не для тебя качал а для себя а выложил для хороших, благодарных людей (с целью поделиться)...

Создавать темы 24-Сен-2014 23:23

[Профиль]  [ЛС] 

Mercuriy ®

Стаж: 5 лет 11 месяцев

Сообщений: 418

Симпатии: 100

Добавлены Эпизоды №5-6, приятного просмотра).

Создавать темы 25-Сен-2014 07:26

[Профиль]  [ЛС] 

Вадим123

Стаж: 4 года 6 месяцев

Сообщений: 117

Симпатии: 7

Спасибо! Да нормально все! Хорошая картинка (даже на 26 дюймовом мониторе). Кому не нравится пусть идут покупают на улице (24 серии на одностороннем диске) за 2500. Или с внешки качают.

Создавать темы 25-Сен-2014 10:01

[Профиль]  [ЛС] 

Ritik

Стаж: 4 года

Сообщений: 4

Симпатии: 3

Mercuriy Спасибо! добав скорость пожалуйста.....

Создавать темы 25-Сен-2014 14:02

[Профиль]  [ЛС] 

edgemza

Стаж: 6 лет 5 месяцев

Сообщений: 191

Симпатии: 7

878589edgemza, Не нравится проходи мимо и не сори в теме. не нравится зачем качаеш ??
P.S. Если хочешь могу дать ссыль на те параметры на внешке..
P.S. 2 Еще за долго до упомянутого релиза я взял на внешке несколько вариантов и на следующий другой вариант слил этот показался и картинке и по звуку лучьше (хоть и параметры с небольшой разнице) так сказать не по сухим цифровым данным а воочию, все искал вариант приближенный к качеству предидущих сезонов WEBDL.....
edgemza, И вообще не для тебя качал а для себя а выложил для хороших, благодарных людей (с целью поделиться)...
Mercuriy, не серчайте пожалуйста, я руководствовался, как вы правильно подметили "сухими цифрами", а они оказывается бывают ошибаются (во всяком случае в визуальном аспекте!). После закачки 3-й серии я убедился, что действительно картинка хорошая, а по соотношению сторон она даже оказалась лучше чем мой "хваленный" вариант, и на моём 32 дюймовом ТВ всё действительно идеально и замечательно!
Так что я уже 100 раз пожалел о своих, как оказалось, обидных для вас словах (повторюсь, я оперировал цифрами) и о том что здесь "сорил" и флудничал.
Так что спасибо вам за релиз!

Создавать темы 25-Сен-2014 14:50

[Профиль]  [ЛС] 

RedDevilll

Стаж: 4 года 7 месяцев

Сообщений: 22

Симпатии: 2

Мдааа....раздача когда-нибудь будет вообще с нормальной скоростью?

Создавать темы 26-Сен-2014 03:11

[Профиль]  [ЛС] 

Mercuriy ®

Стаж: 5 лет 11 месяцев

Сообщений: 418

Симпатии: 100

Добавлены Эпизоды №7-8, приятного просмотра).

Создавать темы 26-Сен-2014 09:52

[Профиль]  [ЛС] 

kiparobot

Стаж: 6 лет 8 месяцев

Сообщений: 37

Симпатии: 3

878916Мдааа....раздача когда-нибудь будет вообще с нормальной скоростью?
+

Создавать темы 26-Сен-2014 17:56

[Профиль]  [ЛС] 

Olga1368

Стаж: 5 лет 8 месяцев

Сообщений: 72

Симпатии: 12

Вчера нормальная скорость была а сегодня.... Вы какой то режим поставили? Одному хотя бы раздали, если сами не можете скорость увеличить.

Создавать темы 26-Сен-2014 20:26

[Профиль]  [ЛС] 

Zab

Стаж: 6 лет 5 месяцев

Сообщений: 476

Симпатии: 424

879141Вчера нормальная скорость была а сегодня.... Вы какой то режим поставили? Одному хотя бы раздали, если сами не можете скорость увеличить.
Вы взглянули бы скока там народу скачивают от одного релизёра))...


Последний раз редактировалось: Zab (2014-09-27 19:00), всего редактировалось 2 раз(а)

Создавать темы 26-Сен-2014 21:26

[Профиль]  [ЛС] 

Mercuriy ®

Стаж: 5 лет 11 месяцев

Сообщений: 418

Симпатии: 100

Olga1368, Режима никакого небыло) просто вчера от скуки взял и залил три сезона Чужого района с Денисом Рожковым, вот они чуток скорости и умяли....

Создавать темы 26-Сен-2014 23:18

[Профиль]  [ЛС] 
Показать сообщения:    
Ответить на тему

Текущее время: 17-Окт 14:27

Часовой пояс: UTC + 5



Вы не можете начинать темы
Вы не можете отвечать на сообщения
Вы не можете редактировать свои сообщения
Вы не можете удалять свои сообщения
Вы не можете голосовать в опросах
Вы не можете прикреплять файлы к сообщениям
Вы не можете скачивать файлы