Чужой район (Сезон 1 (Полностью), Серии: 1-24 из 24) (Андрей Коршунов, Максим Бриус) [2012г., Криминал, Детектив, SATRip]

Ответить на тему
 

Mercuriy ®

Стаж: 5 лет 9 месяцев

Сообщений: 418

Симпатии: 100

--ЧУЖОЙ РАЙОН-(Сезон 1 (Полностью), Серии: с 1-й по 24-ю из 24)--- Год выпуска: 2012
Страна: Россия, Russia Компания [ Триикс медиа] по заказу Телеканала НТВ
Жанр: Криминал, Детектив
Сезон: 1
Серии: 1-24 из 24
Продолжительность: ~ 00:45:00
Перевод: Не требуется--Режиссеры: Андрей Коршунов, Максим Бриус--В ролях: Денис Рожков, Вячеслав Аркунов, Сергей Колос, Зоя Буряк, Евгений Леонов-Гладышев, Екатерина Проскурина, Игорь Головин (II), Даниил Кокин, Алексей Лысенко, Юрий Архангельский, Михаил Сидаш, Егор Бакулин, Владимир Галась, Денис Кириллов, Яна Чигир, Алексей Нилов, Марианна Маркина, Александр Иванов (XIV), Мира Мордасова, Сергей Черапкин, Игорь Лепихин--Описание: Сотрудник уголовного розыска Андрей Фролов после того, как он обезвредил преступника, который оказался внуком влиятельного лица, вынужден оставить работу опера. Но временно, как ему обещали.
Андрей переводится в участковые, и, по чьей-то «злой воле», ему доверяют самый сложный в криминальном плане район под названием «МОЛОТ» (Красный Молот). Это микрорайон на окраине Мегаполиса, бывший рабочий посёлок имени Красных Молотобойцев. До ближайшего метро 15 минут маршруткой, которая ходит «раз в год по обещанию»… Микрорайон с типичными «прелестями» спально-рабочих городских окраин. Здесь свои законы, каждый сам себе защитник. По сути, районом управляет Авторитет (здесь закон – это он). Жизнь в районе сурова, но в большинстве своём, его жители, несмотря на непритязательность и простоту, оказываются «правильными», «настоящими».
В районе Фролову не очень-то и рады. Местный участковый Свистунов, новый коллега Фролова, всячески пытается выслужиться за счет нового напарника, местные бандиты всячески хотят заставить Фролова работать на них. Единственное, что остаётся Андрею, - честно нести службу и ждать обещанного перевода назад в свой отдел, вновь на оперативную работу. Но, как известно, обещанного 3 года ждут. А за это время ему не раз придётся решать проблемы жителей Молота, оказываясь как в комичных, так и в опасных для жизни ситуациях.
-- -- --Качество: SATRip
Формат: AVI
Видео кодек: XviD
Аудио кодек: МР3
Видео: 704x384 (1.85:1), 25 fps, XviD build 50 ~1500 kbps avg, 0.22 bit/pixel
Аудио: 48 kHz, МР3 Dolby Digital, 2/0 (L,R) ch, ~128.00 kbps avg
--

MI:

General
Complete name : E:\Кино_Видео_и_ТВ\Российские_сериалы\Чужой район\(01) - Сезон\Чужой район.01.avi
Format : AVI
Format/Info : Audio Video Interleave
File size : 501 MiB
Duration : 44mn 42s
Overall bit rate : 1 566 Kbps
Writing application : VirtualDubMod 1.5.10.3 | www.virtualdub-fr.org || (build 2550/release)
Writing library : VirtualDubMod build 2550/release
Video
ID : 0
Format : MPEG-4 Visual
Format profile : Advanced [email protected]
Format settings, BVOP : 2
Format settings, QPel : No
Format settings, GMC : No warppoints
Format settings, Matrix : Default (MPEG)
Codec ID : XVID
Codec ID/Hint : XviD
Duration : 44mn 42s
Bit rate : 1 429 Kbps
Width : 704 pixels
Height : 384 pixels
Display aspect ratio : 1.85:1
Frame rate : 25.000 fps
Color space : YUV
Chroma subsampling : 4:2:0
Bit depth : 8 bits
Scan type : Progressive
Compression mode : Lossy
Bits/(Pixel*Frame) : 0.211
Stream size : 457 MiB (91%)
Writing library : XviD 64
Audio
ID : 1
Format : MPEG Audio
Format version : Version 1
Format profile : Layer 3
Codec ID : 55
Codec ID/Hint : MP3
Duration : 44mn 42s
Bit rate mode : Constant
Bit rate : 128 Kbps
Channel(s) : 2 channels
Sampling rate : 48.0 KHz
Compression mode : Lossy
Stream size : 40.9 MiB (8%)
Alignment : Aligned on interleaves
Interleave, duration : 40 ms (1.00 video frame)
Interleave, preload duration : 504 ms
Writing library : LAME3.98r
Encoding settings : -m s -V 4 -q 2 -lowpass 17 -b 128
--

Создавать темы 25-Сен-2014 22:37

[Профиль]  [ЛС] 

фазилов

Стаж: 3 года 6 месяцев

Сообщений: 310

Симпатии: 344

Создавать темы 26-Сен-2014 06:08

[Профиль]  [ЛС] 

фазилов

Стаж: 3 года 6 месяцев

Сообщений: 310

Симпатии: 344

Создавать темы 26-Сен-2014 06:09

[Профиль]  [ЛС] 

фазилов

Стаж: 3 года 6 месяцев

Сообщений: 310

Симпатии: 344

Создавать темы 26-Сен-2014 06:11

[Профиль]  [ЛС] 

фазилов

Стаж: 3 года 6 месяцев

Сообщений: 310

Симпатии: 344

Mercuriy, Ух,ты. Огромный респект релизёру. И когда успеваешь? Сразу 3 сезона. Спасибо!!!!

Создавать темы 26-Сен-2014 06:13

[Профиль]  [ЛС] 

Dustmurod

Стаж: 4 года 6 месяцев

Сообщений: 21

Модераторы, и этому тоже золото надо :)
Почему первый сезон осталось без золото?

Создавать темы 26-Сен-2014 08:35

[Профиль]  [ЛС] 

фазилов

Стаж: 3 года 6 месяцев

Сообщений: 310

Симпатии: 344

Что-то 1 сезон нет раздачи. 2 и 3 раздаются потихоньку.

Создавать темы 26-Сен-2014 12:41

[Профиль]  [ЛС] 

Вадим123

Стаж: 4 года 4 месяца

Сообщений: 117

Симпатии: 7

Товарищи! Граждане! Господа! Имейте совесть! С 28 сентября еле сккачал 1.42 Гб а раздал из этих 1.42 уже на 2.66. Раздавайте, плиз. Не удаляйте скачанные серии.

Создавать темы 06-Окт-2014 19:56

[Профиль]  [ЛС] 

utemurat

Стаж: 4 года 10 месяцев

Сообщений: 35

Симпатии: 1

:cd: золото

Создавать темы 06-Окт-2014 22:19

[Профиль]  [ЛС] 
Показать сообщения:    
Ответить на тему

Текущее время: 22-Авг 04:54

Часовой пояс: UTC + 5



Вы не можете начинать темы
Вы не можете отвечать на сообщения
Вы не можете редактировать свои сообщения
Вы не можете удалять свои сообщения
Вы не можете голосовать в опросах
Вы не можете прикреплять файлы к сообщениям
Вы не можете скачивать файлы