Чужой район (Сезон 2 (Полностью), Серии: 1-32 из 32) (Максим Бриус) [2013г., Криминал, Детектив, SATRip]

Ответить на тему
 

Mercuriy ®

Стаж: 5 лет 9 месяцев

Сообщений: 418

Симпатии: 100

--ЧУЖОЙ РАЙОН-(Сезон 2 (Полностью), Серии: с 1-й по 32-ю из 32)--- Год выпуска: 2013
Страна: Россия, Russia Компания [ Триикс медиа] по заказу Телеканала НТВ
Жанр: Криминал, Детектив
Сезон: 2
Серии: 1-32 из 32
Продолжительность: ~ 00:45:00
Перевод: Не требуется--Режиссеры: Максим Бриус--В ролях: Денис Рожков, Кирилл Полухин, Игорь Головин, Зоя Буряк, Сергей Колос, Екатерина Проскурина, Юрий Архангельский, Алексей Нилов, Вячеслав Аркунов, Алексей Одинг, Оксана Скакун, Сергей Черапкин, Вадим Лымарь, Александр Стекольников, Сергей Рублёв, Елена Лопаткина, Геннадий Макоев, Дмитрий Белов, Сергей Малюгов, Инна Корнышева, Ринат Муталлапов, Артур Федынко, Павел Гончаров--Описание: После безупречной службы в должности инспектора полиции на окраине города Фролов готовится к триумфальному возвращению в центральный район, откуда его несправедливо изгнали. Но просто так отпустить друга не готов его напарник Свистунов. В прощальный вечер друзья решили немного покуролесить: начали с «очень вкусного самогона», потом устроили драку в ночном клубе, угнали трамвай и где-то посеяли служебное удостоверение Андрея. Утром, после разговора с начальством, Фролов понял: долгожданное повышение откладывается до лучших времен…
-- -- --Качество: SATRip
Формат: AVI
Видео кодек: XviD
Аудио кодек: МР3
Видео: 704x384 (1.85:1), 25 fps, XviD build 50 ~1600 kbps avg, 0.22 bit/pixel
Аудио: 48 kHz, МР3 Dolby Digital, 2/0 (L,R) ch, ~128.00 kbps avg
--

MI:

General
Complete name : E:\Кино_Видео_и_ТВ\Российские_сериалы\Чужой район\(02) - Сезон\Chuzhoi.raion.2_01.seriya.avi
Format : AVI
Format/Info : Audio Video Interleave
File size : 551 MiB
Duration : 45mn 1s
Overall bit rate : 1 712 Kbps
Writing application : VirtualDubMod 1.5.10.2 (build 2540/release)
Writing library : VirtualDubMod build 2540/release
Video
ID : 0
Format : MPEG-4 Visual
Format profile : Advanced [email protected]
Format settings, BVOP : 1
Format settings, QPel : No
Format settings, GMC : No warppoints
Format settings, Matrix : Custom
Codec ID : XVID
Codec ID/Hint : XviD
Duration : 45mn 1s
Bit rate : 1 574 Kbps
Width : 704 pixels
Height : 384 pixels
Display aspect ratio : 1.85:1
Frame rate : 25.000 fps
Color space : YUV
Chroma subsampling : 4:2:0
Bit depth : 8 bits
Scan type : Progressive
Compression mode : Lossy
Bits/(Pixel*Frame) : 0.233
Stream size : 507 MiB (92%)
Writing library : XviD 1.2.1 (UTC 2008-12-04)
Audio
ID : 1
Format : MPEG Audio
Format version : Version 1
Format profile : Layer 3
Mode : Joint stereo
Mode extension : MS Stereo
Codec ID : 55
Codec ID/Hint : MP3
Duration : 45mn 1s
Bit rate mode : Constant
Bit rate : 128 Kbps
Channel(s) : 2 channels
Sampling rate : 48.0 KHz
Compression mode : Lossy
Stream size : 41.2 MiB (7%)
Alignment : Aligned on interleaves
Interleave, duration : 40 ms (1.00 video frame)
Interleave, preload duration : 504 ms
Writing library : LAME3.98r
Encoding settings : -m j -V 4 -q 2 -lowpass 17 -b 128
--

Создавать темы 25-Сен-2014 23:12

[Профиль]  [ЛС] 
Показать сообщения:    
Ответить на тему

Текущее время: 16-Авг 22:26

Часовой пояс: UTC + 5



Вы не можете начинать темы
Вы не можете отвечать на сообщения
Вы не можете редактировать свои сообщения
Вы не можете удалять свои сообщения
Вы не можете голосовать в опросах
Вы не можете прикреплять файлы к сообщениям
Вы не можете скачивать файлы