Чужой район (Сезон 3 (Полностью), Серии: 1-32 из 32) (Игорь Драка, Богдан Дробязко, Игорь Москвитин, Виктор Татарский, Андрей Либенсон, Дмитрий) [2014г., Криминал, Детектив, SATRip]

Ответить на тему
 

Mercuriy ®

Стаж: 5 лет 9 месяцев

Сообщений: 418

Симпатии: 100

--ЧУЖОЙ РАЙОН-(Сезон 3 (Полностью), Серии: с 1-й по 32-ю из 32)--- Год выпуска: 2014
Страна: Россия, Russia Компания [ Триикс медиа] по заказу Телеканала НТВ
Жанр: Криминал, Детектив
Сезон: 3
Серии: 1-32 из 32
Продолжительность: ~ 00:45:00
Перевод: Не требуется--Режиссеры: Игорь Драка, Богдан Дробязко, Игорь Москвитин, Виктор Татарский, Андрей Либенсон, Дмитрий--В ролях: Денис Рожков, Кирилл Полухин, Сергей Колос, Алексей Нилов, Зоя Буряк, Екатерина Проскурина, Игорь Головин, Игорь Вуколов, Юрий Архангельский, Вячеслав Аркунов, Алексей Одинг, Игорь Лепихин, Евгений Новоселов, Наталья Голованова, Константин Клюквин, Ирина Обрезкова, Глеб Степан Каллистов, Сергей Федоров, Денис Сэндлер, Сергей Глазков, Дмитрий Глазков, Сергей Малюгов, Арина Иванова, Оксана Скакун, Олег Панин, Сергей Носиков, Андрей Матюков, Олег Тилькин, Роман Притула, Роман Жилкин, Юлия Скороход, Всеволод Богомольный, Денис Старков, Никита Барсуков, Никита Плащевский--Описание: Следователи поспешили закрыть дело о покушении на участкового района Красный Молот капитана полиции Андрея Фролова, в результате которого был тяжело ранен его отец. Фролов подозревает, что организовал покушение его давний враг, бывший полицейский-оборотень Толя Дубинин. Но подозрения, как известно, к делу не пришьешь…
Между тем Фролов вновь готовится к переводу в уголовный розыск Центрального района, откуда он и был в свое время сослан на окраину Санкт-Петербурга, невольно перейдя дорогу влиятельному полицейскому генералу.
Но очередное столкновение с Дубининым и козни находящегося в розыске главы районной администрации Александра Петрова вновь перечеркивают планы Андрея…
-- -- --Качество: SATRip
Формат: AVI
Видео кодек: XviD
Аудио кодек: МР3
Видео: 720x400 (16:9), 25 fps, XviD build 50 ~1600 kbps avg, 0.22 bit/pixel
Аудио: 48 kHz, МР3 Dolby Digital, 2/0 (L,R) ch, ~128.00 kbps avg
--

MI:

General
Complete name : E:\Кино_Видео_и_ТВ\Российские_сериалы\Чужой район\(03) - Сезон\Chuzhoi.raion.3.2014.SATRip_01.seriya.avi
Format : AVI
Format/Info : Audio Video Interleave
File size : 551 MiB
Duration : 44mn 38s
Overall bit rate : 1 725 Kbps
Writing application : VirtualDubMod 1.5.10.2 (build 2540/release)
Writing library : VirtualDubMod build 2540/release
Video
ID : 0
Format : MPEG-4 Visual
Format profile : Advanced [email protected]
Format settings, BVOP : 1
Format settings, QPel : No
Format settings, GMC : No warppoints
Format settings, Matrix : Custom
Codec ID : XVID
Codec ID/Hint : XviD
Duration : 44mn 38s
Bit rate : 1 587 Kbps
Width : 720 pixels
Height : 400 pixels
Display aspect ratio : 16:9
Frame rate : 25.000 fps
Color space : YUV
Chroma subsampling : 4:2:0
Bit depth : 8 bits
Scan type : Progressive
Compression mode : Lossy
Bits/(Pixel*Frame) : 0.220
Stream size : 507 MiB (92%)
Writing library : XviD 1.2.1 (UTC 2008-12-04)
Audio
ID : 1
Format : MPEG Audio
Format version : Version 1
Format profile : Layer 3
Codec ID : 55
Codec ID/Hint : MP3
Duration : 44mn 38s
Bit rate mode : Constant
Bit rate : 128 Kbps
Channel(s) : 2 channels
Sampling rate : 48.0 KHz
Compression mode : Lossy
Stream size : 40.9 MiB (7%)
Alignment : Aligned on interleaves
Interleave, duration : 40 ms (1.00 video frame)
Interleave, preload duration : 504 ms
Writing library : LAME3.98r
Encoding settings : -m s -V 4 -q 2 -lowpass 17 -b 128
--

Создавать темы 25-Сен-2014 23:35

[Профиль]  [ЛС] 

Вадим123

Стаж: 4 года 4 месяца

Сообщений: 117

Симпатии: 7

Спасибо огромное! Побольше бы Российских сериалов на трекере

Создавать темы 26-Сен-2014 00:40

[Профиль]  [ЛС] 

sulla

Стаж: 4 года 11 месяцев

Сообщений: 26

Симпатии: 2

Спасибо !

Создавать темы 26-Сен-2014 00:42

[Профиль]  [ЛС] 

фазилов

Стаж: 3 года 6 месяцев

Сообщений: 310

Симпатии: 344

На 1 сезон что золото не дали?Mercuriy, РЕСПЕКТ за релиз!!!! mb mb

Создавать темы 26-Сен-2014 06:22

[Профиль]  [ЛС] 

nataly007-73

Стаж: 5 лет 6 месяцев

Сообщений: 1

спасибо.давно ждем

Создавать темы 26-Сен-2014 14:16

[Профиль]  [ЛС] 

nravich

Стаж: 3 года 8 месяцев

Сообщений: 38

Симпатии: 16

Спасибо за релиз. Просьба к личерам скачивать по одной серии, раздал 12 гб скачал 2 гб скорость 4 кбс.
Быстрей скачаем релиз.

Создавать темы 30-Сен-2014 19:11

[Профиль]  [ЛС] 

sulla

Стаж: 4 года 11 месяцев

Сообщений: 26

Симпатии: 2

прошу прояснить. начал смотреть 1-ю серию с раздачи , а там "самосуд" , 2-ю серию с раздачи , а там "беглец" это же из другого сезона, где же 3-й сезон? если смысл качать?

Создавать темы 03-Окт-2014 20:55

[Профиль]  [ЛС] 

Mercuriy ®

Стаж: 5 лет 9 месяцев

Сообщений: 418

Симпатии: 100

sulla, Вы вообще понимаете о чем говорите??? Из какого другого сезона млин???
Назовите номер и серию я сравню, просто не смотрел еще....

Создавать темы 04-Окт-2014 01:36

[Профиль]  [ЛС] 

stalker79

Стаж: 5 лет 7 месяцев

Сообщений: 7

Mercuriy ® дай скорость,ваще не качает

Создавать темы 24-Окт-2014 19:17

[Профиль]  [ЛС] 

Mercuriy ®

Стаж: 5 лет 9 месяцев

Сообщений: 418

Симпатии: 100

stalker79, На всех меня не хватает, потому чем богат тем и рад...

Создавать темы 24-Окт-2014 21:09

[Профиль]  [ЛС] 

Джон Рэппер

Стаж: 1 год 8 месяцев

Сообщений: 8

спасибо за сериальчик

Создавать темы 05-Апр-2016 16:18

[Профиль]  [ЛС] 

фазилов

Стаж: 3 года 6 месяцев

Сообщений: 310

Симпатии: 344

Кто на закачке-быстрее докачивайте. Уже буду удалять с компа.

Создавать темы 31-Авг-2016 11:55

[Профиль]  [ЛС] 
Показать сообщения:    
Ответить на тему

Текущее время: 23-Авг 11:23

Часовой пояс: UTC + 5



Вы не можете начинать темы
Вы не можете отвечать на сообщения
Вы не можете редактировать свои сообщения
Вы не можете удалять свои сообщения
Вы не можете голосовать в опросах
Вы не можете прикреплять файлы к сообщениям
Вы не можете скачивать файлы