Город грехов 2: Женщина, ради которой стоит убивать / Sin City: A Dame to (Фрэнк Миллер, Роберт Родригес) [2014, США, Боевик, триллер, криминал, BDRip 1080p] Dub [Лицензия]

Ответить на тему
 

yusuf.0088 ®

Стаж: 3 года 11 месяцев

Сообщений: 116

Симпатии: 69

Город грехов 2: Женщина, ради которой стоит убивать / Sin City: A Dame to Kill For
«There is no justice without sin»
-- Год выпуска: 2014
Страна: США
Жанр: Боевик, триллер, криминал
Продолжительность: 01:42:46--Перевод: Профессиональный (полное дублирование) [Лицензия]
Оригинальная дорожка: нет
Cубтитры: нет--Режиссер: Фрэнк Миллер, Роберт Родригес--В ролях: Ева Грин, Микки Рурк, Джош Бролин, Джессика Альба, Джозеф Гордон-Левитт, Розарио Доусон, Пауэрс Бут, Деннис Хейсбёрт, Джейми Чунг, Брюс Уиллис--Описание: В темных переулках Города Грехов Дуайт планирует жестоко отомстить женщине по имени Ава Лорд, которая его предала, в то время как Нэнси пытается смириться со смертью детектива Хартигана.-- --Качество: BDRip 1080p
Формат: mkv--Видео: MPEG-4 AVC / 7654 Кбит/с, 1920x1036
Аудио : Русский AC3 6 ch / 640 Кбит/с / 48КГц |Дубляж|

Media Info

Формат : Matroska
Версия формата : Version 4 / Version 2
Размер файла : 5,95 Гбайт
Продолжительность : 1 ч. 42 м.
Общий поток : 8295 Кбит/сек
Название фильма : Город.Грехов.2.2014.BDRip.(1080p)
Дата кодирования : UTC 2014-09-27 08:39:08
Программа кодирования : mkvmerge v6.0.0 ('Coming Up For Air') built on Jan 20 2013 09:52:00
Библиотека кодирования : libebml v1.3.0 + libmatroska v1.4.0
Видео
Идентификатор : 1
Формат : AVC
Формат/Информация : Advanced Video Codec
Профиль формата : [email protected]
Параметр CABAC формата : Да
Параметр ReFrames формата : 4 кадра
Идентификатор кодека : V_MPEG4/ISO/AVC
Продолжительность : 1 ч. 42 м.
Битрейт : 7654 Кбит/сек
Ширина : 1920 пикселей
Высота : 1036 пикселей
Соотношение сторон : 1,85:1
Режим частоты кадров : Постоянный
Частота кадров : 24,000 кадра/сек
Цветовое пространство : YUV
Субдискретизация насыщенности : 4:2:0
Битовая глубина : 8 бит
Тип развёртки : Прогрессивная
Бит/(Пиксели*Кадры) : 0.160
Размер потока : 5,38 Гбайт (90%)
Заголовок : Город.Грехов.2.2014.BDRip.(1080p)
Библиотека кодирования : x264 core 130 r2273 b3065e6
Настройки программы : cabac=1 / ref=4 / deblock=1:-2:-2 / analyse=0x3:0x113 / me=umh / subme=10 / psy=1 / psy_rd=1.00:0.20 / mixed_ref=1 / me_range=32 / chroma_me=1 / trellis=2 / 8x8dct=1 / cqm=0 / deadzone=21,11 / fast_pskip=0 / chroma_qp_offset=-3 / threads=6 / lookahead_threads=1 / sliced_threads=0 / nr=0 / decimate=0 / interlaced=0 / bluray_compat=0 / constrained_intra=0 / bframes=8 / b_pyramid=2 / b_adapt=2 / b_bias=0 / direct=3 / weightb=1 / open_gop=0 / weightp=2 / keyint=240 / keyint_min=23 / scenecut=40 / intra_refresh=0 / rc_lookahead=40 / rc=2pass / mbtree=0 / bitrate=7654 / ratetol=1.0 / qcomp=0.60 / qpmin=0 / qpmax=69 / qpstep=4 / cplxblur=20.0 / qblur=0.5 / vbv_maxrate=50000 / vbv_bufsize=62500 / nal_hrd=none / ip_ratio=1.40 / pb_ratio=1.30 / aq=1:1.00
Язык : English
Default : Да
Forced : Нет
Аудио
Идентификатор : 2
Формат : AC-3
Формат/Информация : Audio Coding 3
Расширение режима : CM (complete main)
Параметр Endianness формата : Big
Идентификатор кодека : A_AC3
Продолжительность : 1 ч. 42 м.
Вид битрейта : Постоянный
Битрейт : 640 Кбит/сек
Каналы : 6 каналов
Расположение каналов : Front: L C R, Side: L R, LFE
Частота : 48,0 КГц
Битовая глубина : 16 бит
Метод сжатия : С потерями
Размер потока : 470 Мбайт (8%)
Заголовок : AC3
Язык : Russian
Default : Нет
Forced : Нет

Скриншоты

Создавать темы 27-Сен-2014 13:52

[Профиль]  [ЛС] 

Java Kun

Стаж: 6 лет 2 месяца

Сообщений: 112

Симпатии: 2

Спасибо за такой шикарный релиз

Создавать темы 27-Сен-2014 20:44

[Профиль]  [ЛС] 
Показать сообщения:    
Ответить на тему

Текущее время: 26-Сен 01:36

Часовой пояс: UTC + 5



Вы не можете начинать темы
Вы не можете отвечать на сообщения
Вы не можете редактировать свои сообщения
Вы не можете удалять свои сообщения
Вы не можете голосовать в опросах
Вы не можете прикреплять файлы к сообщениям
Вы не можете скачивать файлы