Третья персона / Third Person (Пол Хаггис) [2013 г., Драма, Мелодрама HDRip]

Ответить на тему
 

Zab ®

Стаж: 6 лет 3 месяца

Сообщений: 476

Симпатии: 424

Третья персона | Third Person -«Life can change at the turn of a page»
-Год выпуска: 2013
Производство: Великобритания, США, Германия, Бельгия, Corsan
Жанр: Драма, Мелодрама
Продолжительность: 02:16:45
Перевод: Двуголосый закадровый, любительский (Paradox)
Субтитры: Отсутствуют-Режиссер: Пол Хаггис
Продюсер: Моран Атиас, Пол Брюлс, Нильс Дюнкер
Актеры: Лиам Нисон, Мила Кунис, Эдриан Броуди, Оливия Уайлд, Джеймс Франко, Моран Атиас, Мария Белло, Ким Бейсингер, Микеле Мелега, Джанни Франко-Описание фильма:
Фильм состоит из трех историй о любви, действие которых развернется в трех разных городах: Нью-Йорке, Париже и Риме.-Дата мировой премьеры: 9 сентября 2013
Дата российской премьеры: 27 ноября 2014, «Top Film Distribution»- -Качество видео: HDRip
Видеокодек: XviD
Аудиокодек: AC3 5.1
Видео: Xvid 720x304 23.976fps 1067kbps
Аудио: Dolby AC3 48000Hz 6ch 448kbps

Скриншоты

MI

General
Complete name                            : D:\[Movies]\Third Person.2013.Paradox.HDRip.1.46Gb.avi
Format                                   : AVI
Format/Info                              : Audio Video Interleave
File size                                : 1.46 GiB
Duration                                 : 2h 16mn
Overall bit rate                         : 1 525 Kbps
Writing application                      : VirtualDubMod 1.5.10.2 (build 2540/release)
Writing library                          : VirtualDubMod build 2540/release
Video
ID                                       : 0
Format                                   : MPEG-4 Visual
Format profile                           : Advanced [email protected]
Format settings, BVOP                    : 2
Format settings, QPel                    : No
Format settings, GMC                     : No warppoints
Format settings, Matrix                  : Custom
Codec ID                                 : XVID
Codec ID/Hint                            : XviD
Duration                                 : 2h 16mn
Bit rate                                 : 1 068 Kbps
Width                                    : 720 pixels
Height                                   : 304 pixels
Display aspect ratio                     : 2.35:1
Frame rate                               : 23.976 fps
Color space                              : YUV
Chroma subsampling                       : 4:2:0
Bit depth                                : 8 bits
Scan type                                : Progressive
Compression mode                         : Lossy
Bits/(Pixel*Frame)                       : 0.203
Stream size                              : 1.02 GiB (70%)
Writing library                          : XviD 1.2.1 (UTC 2008-12-04)
Audio
ID                                       : 1
Format                                   : AC-3
Format/Info                              : Audio Coding 3
Mode extension                           : CM (complete main)
Format settings, Endianness              : Big
Codec ID                                 : 2000
Duration                                 : 2h 16mn
Bit rate mode                            : Constant
Bit rate                                 : 448 Kbps
Channel(s)                               : 6 channels
Channel positions                        : Front: L C R, Side: L R, LFE
Sampling rate                            : 48.0 KHz
Bit depth                                : 16 bits
Compression mode                         : Lossy
Stream size                              : 438 MiB (29%)
Alignment                                : Split accross interleaves
Interleave, duration                     : 42 ms (1.00 video frame)
Interleave, preload duration             : 500 ms

Создавать темы 29-Сен-2014 00:37

[Профиль]  [ЛС] 
Показать сообщения:    
Ответить на тему

Текущее время: 17-Авг 22:33

Часовой пояс: UTC + 5



Вы не можете начинать темы
Вы не можете отвечать на сообщения
Вы не можете редактировать свои сообщения
Вы не можете удалять свои сообщения
Вы не можете голосовать в опросах
Вы не можете прикреплять файлы к сообщениям
Вы не можете скачивать файлы