Хотел бы я быть здесь / Wish I Was Here (Зак Брафф) [2014 г., Драма, Комедия, WEB-DLRip]

Ответить на тему
 

Rock321123 ®

Стаж: 6 лет 10 месяцев

Сообщений: 94

Симпатии: 5

Хотел бы я быть здесь / Wish I Was Here
Год выпуска: 2014
Страна: США
Жанр: Драма, Комедия
Продолжительность: 01:41:53
Перевод: Профессиональный (полное дублирование)
Режиссер: Зак Брафф
В ролях: Джим Парсонс, Джои Кинг, Зак Брафф, Кейт Хадсон, Лесли Дэвид Бэйкер, Пирс Гэнон, Александр Чаплин, Джеймс Эйври, Ато Эссонда, Марк Тудиум
Описание: История Айдана Блума — актера, отца и мужа, который в свои 35 лет все еще пытается найти себя, цель своей жизни. Уча жизни двух своих детей, Айдан постепенно обнаруживает некоторые части себя, которые он не мог найти раньше…
Качество: WEB-DLRip
Формат: AVI
Видео кодек: XviD
Аудио кодек: AC3
Видео: 720x320, 1659 Kbps
Аудио: AC-3, 384 Kbps, 6 channels, 48.0 KHz

Mediainfo

General
Complete name : D:\Downloads\Hotel.by.ja.byt.zdes.2014.D.WEB-DLRip.1400MB.avi
Format : AVI
Format/Info : Audio Video Interleave
File size : 1.46 GiB
Duration : 1h 41mn
Overall bit rate : 2 053 Kbps
Writing application : VirtualDubMod 1.5.10.3 | www.virtualdub-fr.org || (build 2550/release)
Writing library : VirtualDubMod build 2550/release
Video
ID : 0
Format : MPEG-4 Visual
Format profile : Advanced [email protected]
Format settings, BVOP : 2
Format settings, QPel : No
Format settings, GMC : No warppoints
Format settings, Matrix : Default (MPEG)
Codec ID : XVID
Codec ID/Hint : XviD
Duration : 1h 41mn
Bit rate : 1 659 Kbps
Width : 720 pixels
Height : 320 pixels
Display aspect ratio : 2.25:1
Frame rate : 25.000 fps
Color space : YUV
Chroma subsampling : 4:2:0
Bit depth : 8 bits
Scan type : Progressive
Compression mode : Lossy
Bits/(Pixel*Frame) : 0.288
Stream size : 1.18 GiB (81%)
Writing library : XviD 1.2.1 (UTC 2008-12-04)
Audio
ID : 1
Format : AC-3
Format/Info : Audio Coding 3
Mode extension : CM (complete main)
Format settings, Endianness : Big
Codec ID : 2000
Duration : 1h 41mn
Bit rate mode : Constant
Bit rate : 384 Kbps
Channel(s) : 6 channels
Channel positions : Front: L C R, Side: L R, LFE
Sampling rate : 48.0 KHz
Bit depth : 16 bits
Compression mode : Lossy
Stream size : 280 MiB (19%)
Alignment : Split accross interleaves
Interleave, duration : 40 ms (1.00 video frame)
Interleave, preload duration : 500 ms

Скриншоты

Создавать темы 29-Сен-2014 20:54

[Профиль]  [ЛС] 

Slapper

Стаж: 3 года 9 месяцев

Сообщений: 2193

Симпатии: 213

+ добавьте что это лицензия, а то сейчас вопросами завалят вас.

Создавать темы 29-Сен-2014 22:30

[Профиль]  [ЛС] 

Xixidok

Стаж: 3 года 6 месяцев

Сообщений: 181

Симпатии: 27

Перевод: Дублированный [Лицензия]
Перевод: Дублированный [color=red][b][b][Лицензия][/b][/b][/color]

Создавать темы 30-Сен-2014 07:59

[Профиль]  [ЛС] 

umeka

Стаж: 5 лет 3 месяца

Сообщений: 15

Slapper, Здарова,когда будет открыта регистрация? я бы через свой акк бы хотел войти,НУ КОГДА БУДЕТ?

Создавать темы 08-Окт-2014 19:37

[Профиль]  [ЛС] 

Slapper

Стаж: 3 года 9 месяцев

Сообщений: 2193

Симпатии: 213

umeka, все подобные вопросы не ко мне, а к:
https://tas-ix.net/profile.php?mode=viewprofile&u=2696
https://tas-ix.net/profile.php?mode=viewprofile&u=4

Создавать темы 08-Окт-2014 20:49

[Профиль]  [ЛС] 

umeka

Стаж: 5 лет 3 месяца

Сообщений: 15

Модер не понял, чё за х! почему с моего аккаунта кто-то пишет?

Создавать темы 12-Окт-2014 13:55

[Профиль]  [ЛС] 

tas ix

Стаж: 5 лет 6 месяцев

Сообщений: 105

Симпатии: 24

Очень хороший фильм!

Создавать темы 22-Дек-2014 15:38

[Профиль]  [ЛС] 

Nergiz

Стаж: 4 года 7 месяцев

Сообщений: 2

ооо, круть! качаю!))) Зак Брафф, Джим Парсон, Дональд Фэйсон, Эшли Грин, Боб Клендин, это должно быть Леген-Дарно!)))))

Создавать темы 03-Мар-2015 13:48

[Профиль]  [ЛС] 
Показать сообщения:    
Ответить на тему

Текущее время: 23-Авг 22:43

Часовой пояс: UTC + 5



Вы не можете начинать темы
Вы не можете отвечать на сообщения
Вы не можете редактировать свои сообщения
Вы не можете удалять свои сообщения
Вы не можете голосовать в опросах
Вы не можете прикреплять файлы к сообщениям
Вы не можете скачивать файлы