Теорема Зеро / The Zero Theorem (Терри Гиллиам) [2013 г., Фантастика, триллер, драма, комедия, BDRip 720p, Лицензия]

Ответить на тему
 

lotto ®

Стаж: 7 лет 11 месяцев

Сообщений: 221

Симпатии: 409

Теорема Зеро / The Zero Theorem
«Nothing is everything»

Год выпуска: 2013
Страна: Великобритания, Румыния, Франция, США
Жанр: Фантастика, триллер, драма, комедия
Продолжительность: 01:46:37
Перевод: Профессиональный (полное дублирование) (Лицензия)--Режиссер: Терри Гиллиам
В ролях: Кристоф Вальц, Лукас Хеджес, Мелани Тьерри, Дэвид Тьюлис, Тильда Суинтон, Петер Стормаре, Санджив Бхаскар, Мэтт Дэймон, Бен Уишоу--Описание: Эксцентричный компьютерный гений Коэн Лет бьется над неразрешимой теоремой. Благодаря костюму для виртуальной реальности, изобретенному мальчиком Бобом, Лету удается совершить путешествие в скрытое пространство и узнать тайну своей души. Эту разгадку ищет не только он сам, но и таинственный Менеджмент, который правит всем миром посредством всевидящих устройств под названием ManCams.-- --Качество: BDRip
Формат: MKV
Видео кодек: H.264
Аудио кодек: AC3
Видео: 5419 Kbps, 1280х688, 23.976 fps
Аудио 1: AC3, 48.0 KHz, 6 ch, 384 Kbps, CBR (Русский, Дубляж)
Аудио 1: AC3, 48.0 KHz, 6 ch, 448 Kbps, CBR ((Английский)
Субтитры: Русский, французский

MediaInfo

Video
ID :1
Format :AVC
Format/Info :Advanced Video Codec
Format profile :[email protected]
Format settings, CABAC : Yes
Format settings, ReFrames : 5 frames
Codec ID : V_MPEG4/ISO/AVC
Duration : 1h 46mn
Bit rate : 5 419 Kbps
Width : 1 280 pixels
Height : 688 pixels
Display aspect ratio : 1.85:1
Frame rate mode : Constant
Frame rate : 23.976 fps
Color space : YUV
Chroma subsampling : 4:2:0
Bit depth : 8 bits
Scan type : Progressive
Bits/(Pixel*Frame) : 0.257
Stream size : 3.94 GiB (85%)
Writing library : x264 core 142 r2431 ac76440
Encoding settings : cabac=1 / ref=5 / deblock=1:0:0 / analyse=0x3:0x113 / me=umh / subme=8 / psy=1 / psy_rd=1.00:0.00 / mixed_ref=1 / me_range=16 / chroma_me=1 / trellis=1 / 8x8dct=1 / cqm=0 / deadzone=21,11 / fast_pskip=1 / chroma_qp_offset=-2 / threads=12 / lookahead_threads=2 / sliced_threads=0 / nr=0 / decimate=1 / interlaced=0 / bluray_compat=0 / constrained_intra=0 / bframes=3 / b_pyramid=2 / b_adapt=2 / b_bias=0 / direct=3 / weightb=1 / open_gop=0 / weightp=2 / keyint=240 / keyint_min=24 / scenecut=40 / intra_refresh=0 / rc_lookahead=50 / rc=2pass / mbtree=1 / bitrate=5419 / ratetol=1.0 / qcomp=0.60 / qpmin=0 / qpmax=69 / qpstep=4 / cplxblur=20.0 / qblur=0.5 / ip_ratio=1.40 / aq=1:1.00
Language : English
Default : Yes
Forced : No
Audio #1
ID : 2
Format : AC-3
Format/Info : Audio Coding 3
Mode extension : CM (complete main)
Format settings, Endianness : Big
Codec ID : A_AC3
Duration : 1h 46mn
Bit rate mode : Constant
Bit rate : 384 Kbps
Channel(s) : 6 channels
Channel positions : Front: L C R, Side: L R, LFE
Sampling rate : 48.0 KHz
Bit depth : 16 bits
Compression mode : Lossy
Stream size : 293 MiB (6%)
Language : Russian
Default : Yes
Forced : Yes
Audio #2
ID : 3
Format : AC-3
Format/Info : Audio Coding 3
Mode extension : CM (complete main)
Format settings, Endianness : Big
Codec ID : A_AC3
Duration : 1h 46mn
Bit rate mode : Constant
Bit rate : 448 Kbps
Channel(s) : 6 channels
Channel positions : Front: L C R, Side: L R, LFE
Sampling rate : 48.0 KHz
Bit depth : 16 bits
Compression mode : Lossy
Stream size : 342 MiB (7%)
Language : English
Default : No
Forced : No
Text #1
ID : 4
Format : UTF-8
Codec ID : S_TEXT/UTF8
Codec ID/Info : UTF-8 Plain Text
Language : Russian
Default : Yes
Forced : Yes
Text #2
ID : 5
Format : UTF-8
Codec ID : S_TEXT/UTF8
Codec ID/Info : UTF-8 Plain Text
Title : Forced
Language : French
Default : No
Forced : Yes
Menu
00:00:00.000 : en:00:00:00.000
00:06:37.647 : en:00:06:37.647
00:12:12.690 : en:00:12:12.690
00:19:10.107 : en:00:19:10.107
00:24:34.056 : en:00:24:34.056
00:31:51.284 : en:00:31:51.284
00:38:37.982 : en:00:38:37.982
00:47:40.066 : en:00:47:40.066
00:53:06.725 : en:00:53:06.725
01:00:53.275 : en:01:00:53.275
01:05:01.356 : en:01:05:01.356
01:12:18.834 : en:01:12:18.834
01:20:29.366 : en:01:20:29.366
01:27:04.261 : en:01:27:04.261
01:32:19.701 : en:01:32:19.701
01:40:42.828 : en:01:40:42.828

Скриншоты





Создавать темы 30-Сен-2014 12:17

[Профиль]  [ЛС] 
Показать сообщения:    
Ответить на тему

Текущее время: 12-Дек 11:09

Часовой пояс: UTC + 5



Вы не можете начинать темы
Вы не можете отвечать на сообщения
Вы не можете редактировать свои сообщения
Вы не можете удалять свои сообщения
Вы не можете голосовать в опросах
Вы не можете прикреплять файлы к сообщениям
Вы не можете скачивать файлы