Glasslip / По ту сторону стекла [TV] [13 из 13] [RUS] [2014 г., романтика, повседневность, HDTVRip] [720p] [Fuurou & Shina]

Ответить на тему
 

SNIL ®

Стаж: 5 лет 11 месяцев

Сообщений: 2624

Симпатии: 341

- Страна: Япония
Год выпуска: 2014 г.
Жанр: романтика, повседневность
Продолжительность: ТВ 13 эп., 25 мин.-Режиссер: Нисимура Дзюндзи
Автор оригинала: Сато Рика
Студия: -Описание: «По ту сторону стекла можно увидеть завтрашний день». Главная героиня Токо Фуками – 17-летняя девушка из префектуры Фукуи, дочь владельца стеклодувной мастерской, которая и сама мечтает заняться работой по стеклу.-Информационные ссылки: AniDB | World Art | MAL-Качество: HDTVRip
Формат: mp4
Тип релиза: Без хардсаба
Озвучка: Fuurou & Shina-Видео: x264, 8 bit, 1280x720, ~1800 kbps, 25.000 fps
Аудио: RU - AAC, 44.0 KHz,, 192 kbps, 2 ch-Отличие от Glasslip, в озвучки AniDub-

MediaInfo

E:\Аниме\Glasslip\Glasslip [1] [Fuurou & Shina].mp4
   General
      Complete name : E:\Аниме\Glasslip\Glasslip [1] [Fuurou & Shina].mp4
      Format : MPEG-4
      Format profile : Base Media
      Codec ID : isom
      File size : 338 MiB
      Duration : 24mn 0s
      Overall bit rate : 1 968 Kbps
      Writing application : Lavf54.59.106
   Video #1
      ID : 1
      Format : AVC
      Format/Info : Advanced Video Codec
      Format profile : [email protected]
      Format settings, CABAC : Yes
      Format settings, ReFrames : 4 frames
      Format settings, GOP : M=4, N=12
      Codec ID : avc1
      Codec ID/Info : Advanced Video Coding
      Duration : 24mn 0s
      Duration_LastFrame : -3ms
      Bit rate mode : Variable
      Bit rate : 1 800 Kbps
      Width : 1 280 pixels
      Height : 720 pixels
      Display aspect ratio : 16:9
      Frame rate mode : Constant
      Frame rate : 25.000 fps
      Color space : YUV
      Chroma subsampling : 4:2:0
      Bit depth : 8 bits
      Scan type : Progressive
      Bits/(Pixel*Frame) : 0.078
      Stream size : 315 MiB (93%)
      Writing library : x264 core 129
      Encoding settings : cabac=1 / ref=3 / deblock=1:0:0 / analyse=0x3:0x113 / me=hex / subme=7 / psy=1 / psy_rd=1.00:0.00 / mixed_ref=1 / me_range=16 / chroma_me=1 / trellis=1 / 8x8dct=1 / cqm=0 / deadzone=21,11 / fast_pskip=1 / chroma_qp_offset=-2 / threads=24 / lookahead_threads=4 / sliced_threads=0 / nr=0 / decimate=1 / interlaced=0 / bluray_compat=0 / constrained_intra=0 / bframes=3 / b_pyramid=2 / b_adapt=1 / b_bias=0 / direct=1 / weightb=1 / open_gop=0 / weightp=2 / keyint=250 / keyint_min=25 / scenecut=40 / intra_refresh=0 / rc_lookahead=40 / rc=abr / mbtree=1 / bitrate=1800 / ratetol=1.0 / qcomp=0.60 / qpmin=0 / qpmax=69 / qpstep=4 / ip_ratio=1.40 / aq=1:1.00
   Audio #2
      ID : 2
      Format : AAC
      Format/Info : Advanced Audio Codec
      Format version : Version 4
      Format profile : LC
      Format settings, SBR : No
      Codec ID : 40
      Duration : 23mn 59s
      Bit rate mode : Constant
      Bit rate : 128 Kbps
      Channel(s) : 2 channels
      Channel positions : Front: L R
      Sampling rate : 44.1 KHz
      Stream size : 22.0 MiB (7%)
      Language : English

Скриншоты




Оформление от [email protected]

Создавать темы 02-Окт-2014 19:53

[Профиль]  [ЛС] 

SNIL ®

Стаж: 5 лет 11 месяцев

Сообщений: 2624

Симпатии: 341

Как и всегда: прошу максимально не ограничивать отдачу, у меня УО (больше 50кб/с на всех, не будет)

Создавать темы 02-Окт-2014 20:00

[Профиль]  [ЛС] 

SNIL ®

Стаж: 5 лет 11 месяцев

Сообщений: 2624

Симпатии: 341

Качающие, имейте совесть, раздавайте друг другу

Создавать темы 20-Ноя-2014 20:32

[Профиль]  [ЛС] 
Показать сообщения:    
Ответить на тему

Текущее время: 13-Дек 06:41

Часовой пояс: UTC + 5



Вы не можете начинать темы
Вы не можете отвечать на сообщения
Вы не можете редактировать свои сообщения
Вы не можете удалять свои сообщения
Вы не можете голосовать в опросах
Вы не можете прикреплять файлы к сообщениям
Вы не можете скачивать файлы