Танец Клинка Элементалистов / Seirei Tsukai no Blade Dance (Янагисава Тэцуя) [TV] [12 из 12] [RUS] [Cuba77, Nika Lenina] [2014 г., боевик, комедия, школа, этти, мистика, романтика, HDTVRip] [720p]

Ответить на тему
 

SNIL ®

Стаж: 5 лет 10 месяцев

Сообщений: 2624

Симпатии: 341

Танец Клинка Элементалистов
Seirei Tsukai no Blade Dance
-
Год выпуска: 2014
Страна: Япония
Жанр: боевик, комедия, школа, этти, мистика, романтика
Продолжительность: 12 эп. по 25 мин.-Озвучка:
  • Cuba77, Nika Lenina
-Режиссёр: Янагисава Тэцуя
Автор оригинала: Симидзу Ю
Студия: TNC-Описание:
Элементалисты, юные невинные девы, что заключают договоры с духами вместе с ними воюют рука об руку.
Но тысячу лет назад существовал единственный мужчина Элементалист - Владыка Тьмы Сулайман, что погрузил весь мир во тьму. Однако, он пал от священного меча "Демонобоя".
Прошли века, меч канул в лету а история стала легендой. И вот в один прекрасный день Директор школы Арэйшия приглашает к себе юношу Казэхаю Камито, который по пути к школе вместе со своей новой спутницей Клэр Руж, ученицей то самой школы находит склеп в котором покоится "Демонобой", и клинок отвечает на зов своего нового хозяина.-Качество: HDTVRip
Формат видео: mp4
Видео: x264 (8 bits), 1280х720, 1 923 kbps, 25.000 fps
Аудио Russian: ААС, 44.0 kHz, 128 Kbps, 2ch -

Подробные тех. данные

E:\Аниме\Seirei Tsukai no Blade Dance\Seirei Tsukai no Blade Dance [1] [Cuba77 & Nika Lenina].mp4
   General
      Complete name : E:\Аниме\Seirei Tsukai no Blade Dance\Seirei Tsukai no Blade Dance [1] [Cuba77 & Nika Lenina].mp4
      Format : MPEG-4
      Format profile : Base Media
      Codec ID : isom
      File size : 330 MiB
      Duration : 24mn 0s
      Overall bit rate : 1 923 Kbps
      Writing application : Lavf54.59.106
   Video #1
      ID : 1
      Format : AVC
      Format/Info : Advanced Video Codec
      Format profile : [email protected]
      Format settings, CABAC : Yes
      Format settings, ReFrames : 4 frames
      Format settings, GOP : M=4, N=32
      Codec ID : avc1
      Codec ID/Info : Advanced Video Coding
      Duration : 24mn 0s
      Duration_LastFrame : -13ms
      Bit rate mode : Variable
      Bit rate : 1 800 Kbps
      Width : 1 280 pixels
      Height : 720 pixels
      Display aspect ratio : 16:9
      Frame rate mode : Constant
      Frame rate : 25.000 fps
      Color space : YUV
      Chroma subsampling : 4:2:0
      Bit depth : 8 bits
      Scan type : Progressive
      Bits/(Pixel*Frame) : 0.078
      Stream size : 307 MiB (93%)
      Writing library : x264 core 129
      Encoding settings : cabac=1 / ref=3 / deblock=1:0:0 / analyse=0x3:0x113 / me=hex / subme=7 / psy=1 / psy_rd=1.00:0.00 / mixed_ref=1 / me_range=16 / chroma_me=1 / trellis=1 / 8x8dct=1 / cqm=0 / deadzone=21,11 / fast_pskip=1 / chroma_qp_offset=-2 / threads=24 / lookahead_threads=4 / sliced_threads=0 / nr=0 / decimate=1 / interlaced=0 / bluray_compat=0 / constrained_intra=0 / bframes=3 / b_pyramid=2 / b_adapt=1 / b_bias=0 / direct=1 / weightb=1 / open_gop=0 / weightp=2 / keyint=250 / keyint_min=25 / scenecut=40 / intra_refresh=0 / rc_lookahead=40 / rc=abr / mbtree=1 / bitrate=1800 / ratetol=1.0 / qcomp=0.60 / qpmin=0 / qpmax=69 / qpstep=4 / ip_ratio=1.40 / aq=1:1.00
   Audio #2
      ID : 2
      Format : AAC
      Format/Info : Advanced Audio Codec
      Format version : Version 4
      Format profile : LC
      Format settings, SBR : No
      Codec ID : 40
      Duration : 24mn 0s
      Bit rate mode : Constant
      Bit rate : 128 Kbps
      Channel(s) : 2 channels
      Channel positions : Front: L R
      Sampling rate : 44.1 KHz
      Stream size : 22.0 MiB (7%)
      Language : Russian

Скриншоты

Создавать темы 03-Окт-2014 22:10

[Профиль]  [ЛС] 

Neytron

Стаж: 6 лет 7 месяцев

Сообщений: 26

походу норм аниме, качаю, дайте газу ;)

Создавать темы 03-Окт-2014 23:25

[Профиль]  [ЛС] 

darkus

Стаж: 4 года 3 месяца

Сообщений: 30

Симпатии: 2

Будет-ли 2ой сезон данного релиза ?! =)

Комментарий от SNIL


Возможно, но не скоро

Создавать темы 21-Ноя-2014 22:44

[Профиль]  [ЛС] 

LLIeJIecm

Стаж: 5 лет 2 месяца

Сообщений: 20

Симпатии: 13

народ дайте скорость

Создавать темы 10-Мар-2015 23:55

[Профиль]  [ЛС] 
Показать сообщения:    
Ответить на тему

Текущее время: 21-Ноя 13:00

Часовой пояс: UTC + 5



Вы не можете начинать темы
Вы не можете отвечать на сообщения
Вы не можете редактировать свои сообщения
Вы не можете удалять свои сообщения
Вы не можете голосовать в опросах
Вы не можете прикреплять файлы к сообщениям
Вы не можете скачивать файлы