Аватар: Легенда о Корре / The Legend of Korra / Сезон: 4 / [Серий: 13 из 13](Michael Dante DiMartino / Майкл Данте ДиМартино Bryan Konietzko / Брайан Кониецко) [2014 г., мультфильм, фэнтези, боевик, приключения, семейный, HDTVRip-AVC]

Страницы :  1, 2  След.

Ответить на тему
 

FireHowler ®

Стаж: 4 года 7 месяцев

Сообщений: 270

Симпатии: 153

Аватар: Легенда о Корре книга четвертая:Баланс/ The Legend of Korra fourth book:Balance
Год выпуска: 2014
Страна: США
Жанр: мультфильм, фэнтези, боевик, приключения, семейный
Продолжительность: 23 мин.
Перевод: Любительский (двухголосый)-Режиссер: Michael Dante DiMartino / Майкл Данте ДиМартино Bryan Konietzko / Брайан Кониецко
В ролях: Джанет Вэрни, Дж.К. Симмонс, Ди Брэдли Бейкер, Дэвид Фаустино, П.Дж. Бирн, Дарси Роуз Бернс, Джефф Беннетт, Стивен Блум, Кирнан Шипка, Сейшелл Гэбриел-Описание: В финале Третьей Книги для того, чтобы спасти мир, Аватар Корра сумела одолеть опасного противника, но эта победа досталась ей очень тяжело. Сломленная, она готовится начать новое путешествие в поисках самопознания и выживания в мире, где сильные нападают на слабых. Когда же появляется агрессивная военная сила во главе с алчущей власти Кувирой и судьба царства Земли повисает на волоске, только Аватар может всё исправить.-Качество: HDTVRip-AVC
Формат: MKV
Видео кодек: V_MPEG4/ISO/AVC
Аудио кодек: MP3
Видео: H.264 1280x718 23,976 fps ~3995 Kbps
Аудио: MP3 48,0 КГц 128 Кбит/сек

Media info

Формат : Matroska
Версия формата : Version 2
Размер файла : 688 Мбайт
Продолжительность : 22 м.
Общий поток : 4207 Кбит/сек
Видео
Идентификатор : 1
Формат : AVC
Формат/Информация : Advanced Video Codec
Профиль формата : [email protected]
Параметр CABAC формата : Нет
Параметр ReFrames формата : 2 кадра
Идентификатор кодека : V_MPEG4/ISO/AVC
Продолжительность : 22 м.
Битрейт : 3995 Кбит/сек
Ширина : 1280 пикселей
Высота : 718 пикселей
Соотношение сторон : 16:9
Режим частоты кадров : Постоянный
Частота кадров : 23,976 кадра/сек
Цветовое пространство : YUV
Субдискретизация насыщенности : 4:2:0
Битовая глубина : 8 бит
Тип развёртки : Прогрессивная
Бит/(Пиксели*Кадры) : 0.181
Размер потока : 654 Мбайт (95%)
Заголовок : H.264
Default : Нет
Forced : Нет
Основные цвета : BT.709
Характеристики трансфера : BT.709
Коэффициенты матрицы : BT.709
Аудио
Идентификатор : 2
Формат : MPEG Audio
Версия формата : Version 1
Профиль формата : Layer 3
Режим : Joint stereo
Идентификатор кодека : A_MPEG/L3
Идентификатор кодека/Подсказка : MP3
Продолжительность : 22 м.
Вид битрейта : Постоянный
Битрейт : 128 Кбит/сек
Каналы : 2 канала
Частота : 48,0 КГц
Метод сжатия : С потерями
Размер потока : 20,9 Мбайт (3%)
Default : Да
Forced : Нет

Скриншоты







Последний раз редактировалось: FireHowler (2014-12-23 10:08), всего редактировалось 17 раз(а)

Создавать темы 04-Окт-2014 11:35

[Профиль]  [ЛС] 

FireHowler ®

Стаж: 4 года 7 месяцев

Сообщений: 270

Симпатии: 153

Добавил 2 серию.

Создавать темы 13-Окт-2014 07:33

[Профиль]  [ЛС] 

hunter666

Стаж: 5 лет 3 месяца

Сообщений: 48

Симпатии: 1

когда будем раздавать точноее время скажите очень нужен четвертый сезон!

Создавать темы 14-Окт-2014 11:38

[Профиль]  [ЛС] 

hunter666

Стаж: 5 лет 3 месяца

Сообщений: 48

Симпатии: 1

FireHowler, Встань на раздачу пожалуйста

Создавать темы 14-Окт-2014 11:38

[Профиль]  [ЛС] 

FireHowler ®

Стаж: 4 года 7 месяцев

Сообщений: 270

Симпатии: 153

884753FireHowler, Встань на раздачу пожалуйста
На раздаче стою постоянно, за исключением когда у нас свет отключают, а я в это время на работе.
884752когда будем раздавать точноее время скажите очень нужен четвертый сезон!
Серии выходят по пятницам, озвучка выходит в субботу. Иногда затягивают до понедельника.

Создавать темы 14-Окт-2014 18:44

[Профиль]  [ЛС] 

hunter666

Стаж: 5 лет 3 месяца

Сообщений: 48

Симпатии: 1

то есть только две серии весят столько

Создавать темы 14-Окт-2014 21:43

[Профиль]  [ЛС] 

hunter666

Стаж: 5 лет 3 месяца

Сообщений: 48

Симпатии: 1

газку поддайте пожалуйста!!!!

Создавать темы 14-Окт-2014 21:44

[Профиль]  [ЛС] 

hunter666

Стаж: 5 лет 3 месяца

Сообщений: 48

Симпатии: 1

FireHowler, ты сам откуда уважаемый

Создавать темы 14-Окт-2014 21:58

[Профиль]  [ЛС] 

FireHowler ®

Стаж: 4 года 7 месяцев

Сообщений: 270

Симпатии: 153

Не понял какое это имеет значение? Если Вы про скорость отдачи, то я не с Чирчика и также у меня не узонлайн(Вижу в пирах только узонлайн и чирком) вероятно поэтому скорость отдачи такая маленькая.

Создавать темы 14-Окт-2014 22:54

[Профиль]  [ЛС] 

Хамидулла

Стаж: 5 лет 11 месяцев

Сообщений: 60

Симпатии: 1

народ у кого нибудь есть серии 11,12,13 й из 3 го сезона или дайте ссылку пожалуйста я немог найти

_________________
Подпись отключена за нарушение правил форума

Создавать темы 15-Окт-2014 23:37

[Профиль]  [ЛС] 

FireHowler ®

Стаж: 4 года 7 месяцев

Сообщений: 270

Симпатии: 153

Создавать темы 16-Окт-2014 23:48

[Профиль]  [ЛС] 

FireHowler ®

Стаж: 4 года 7 месяцев

Сообщений: 270

Симпатии: 153

Добавлена 3 серия.

Создавать темы 17-Окт-2014 23:54

[Профиль]  [ЛС] 

Хамидулла

Стаж: 5 лет 11 месяцев

Сообщений: 60

Симпатии: 1

885400а оттуда скачать можно ? как?

_________________
Подпись отключена за нарушение правил форума

Создавать темы 18-Окт-2014 20:33

[Профиль]  [ЛС] 

FireHowler ®

Стаж: 4 года 7 месяцев

Сообщений: 270

Симпатии: 153

886495
885400а оттуда скачать можно ? как?
Установи Internet Download Manager или mahthon cloud browser

Создавать темы 18-Окт-2014 23:18

[Профиль]  [ЛС] 

FireHowler ®

Стаж: 4 года 7 месяцев

Сообщений: 270

Симпатии: 153

Добавил 4 серию.

Создавать темы 25-Окт-2014 06:42

[Профиль]  [ЛС] 
Показать сообщения:    
Ответить на тему

Текущее время: 16-Дек 06:16

Часовой пояс: UTC + 5



Вы не можете начинать темы
Вы не можете отвечать на сообщения
Вы не можете редактировать свои сообщения
Вы не можете удалять свои сообщения
Вы не можете голосовать в опросах
Вы не можете прикреплять файлы к сообщениям
Вы не можете скачивать файлы